<?xml version="1.0" standalone="no"?>
<!DOCTYPE svg PUBLIC "-//W3C//DTD SVG 1.1//EN" "http://www.w3.org/Graphics/SVG/1.1/DTD/svg11.dtd" >
<svg xmlns="http://www.w3.org/2000/svg">
<metadata></metadata>
<defs>
<font id="dejavu_sanscondensed" horiz-adv-x="1544" >
<font-face units-per-em="2048" ascent="1556" descent="-492" />
<missing-glyph horiz-adv-x="585" />
<glyph unicode="&#x627;&#x653;" horiz-adv-x="512" d="M0 0zM-67 1784l144 123q92 -83 153 -104q38 -13 86 -13q52 0 89 16q97 41 176 117v-125q-82 -64 -162 -93q-61 -22 -108 -22q-31 0 -99 17q-69 17 -131 87l-148 -128v125zM174 1556h165v-1556h-165v1556z" />
<glyph unicode="&#x627;&#x654;" horiz-adv-x="512" d="M98 0zM98 1605zM98 1705l70 18q-40 20 -54 56q-14 37 -14 82q0 96 50 139q52 45 135 45q56 0 103 -33v-100q-45 33 -103 33q-59 0 -75 -18q-26 -32 -26 -58q0 -77 85 -104q29 -10 137 19v-102l-308 -77v100zM174 1556h165v-1556h-165v1556z" />
<glyph unicode="&#x648;&#x654;" horiz-adv-x="890" d="M0 0zM246 765zM246 865l70 18q-40 20 -54 56q-14 37 -14 82q0 96 50 139q52 45 135 45q56 0 103 -33v-100q-45 33 -103 33q-59 0 -75 -18q-26 -32 -26 -58q0 -77 85 -104q29 -10 137 19v-102l-308 -77v100zM445 452q-57 0 -97 -57q-21 -33 -21 -69q0 -51 46 -98 q42 -44 215 -44q0 184 -78 243q-33 25 -65 25zM749 184q0 -308 -155 -468q-86 -88 -169 -130q-173 -86 -501 -86v184q323 0 443 76q151 95 207 243q-106 0 -146 10q-136 33 -172 67q-104 98 -104 235q0 141 80 228q94 103 217 103q80 0 145 -51q117 -90 140 -233 q15 -102 15 -178z" />
<glyph unicode="&#x627;&#x655;" horiz-adv-x="512" d="M98 0zM98 -60zM98 -400l70 18q-40 20 -54 56q-14 37 -14 82q0 96 50 139q52 45 135 45q56 0 103 -33v-100q-45 33 -103 33q-59 0 -75 -18q-26 -32 -26 -58q0 -77 85 -104q29 -10 137 19v-102l-308 -77v100zM174 1556h165v-1556h-165v1556z" />
<glyph unicode="&#x64a;&#x654;" horiz-adv-x="1442" d="M117 0zM291 765zM291 865l70 18q-40 20 -54 56q-14 37 -14 82q0 96 50 139q52 45 135 45q56 0 103 -33v-100q-45 33 -103 33q-59 0 -75 -18q-26 -32 -26 -58q0 -77 85 -104q29 -10 137 19v-102l-308 -77v100zM1229 12q-91 -170 -400 -243q-159 -38 -267 -38 q-116 0 -181 26q-264 104 -264 365q0 117 57 230h165q-59 -131 -58 -230q2 -147 149 -192q88 -26 142 -20q114 11 230 35q159 33 235 113q53 56 53 109q0 74 -114 103q-59 15 -162 61q-60 27 -112 78q-58 57 -58 172q0 150 170 224q86 37 179.5 37t180.5 -42 q126 -61 151 -234h-166q-11 61 -71 94q-36 20 -98 22q-70 2 -126 -37q-54 -38 -54 -72q0 -55 112 -97q224 -83 275 -147q69 -85 71 -174q1 -68 -39 -143z" />
<glyph unicode="&#xfb00;" horiz-adv-x="1269" d="M1305 1556v-153h-158q-89 0 -124 -40t-35 -144v-99h273v-143h-273v-977h-166v977h-455v-977h-166v977h-159v143h159v78q0 187 78 272.5t248 85.5h157v-153h-158q-90 0 -124 -40q-35 -40 -35 -144v-99h455v78q0 187 78 272.5t248 85.5h157z" />
<glyph unicode="fi" horiz-adv-x="1161" d="M988 1120v-1120h-166v977h-455v-977h-166v977h-159v143h159v78q0 183 77.5 270.5t239.5 87.5h166v-153h-158q-90 0 -124.5 -40t-34.5 -144v-99h621zM822 1554h166v-233h-166v233z" />
<glyph unicode="fl" horiz-adv-x="1161" d="M527 1556h461v-1556h-166v1403h-296q-90 0 -124.5 -40t-34.5 -144v-99h273v-143h-273v-977h-166v977h-159v143h159v78q0 187 78 272.5t248 85.5z" />
<glyph unicode="&#xfb03;" horiz-adv-x="1782" d="M684 1556v-153h-158q-90 0 -124 -40q-35 -40 -35 -144v-99h455v78q0 187 78 272q25 28 60 47q71 39 188 39h157v-153h-158q-89 0 -124 -40t-35 -144v-99h621v-1120h-166v977h-455v-977h-166v977h-455v-977h-166v977h-159v143h159v78q0 187 78 272.5t248 85.5h157z M1443 1554h166v-233h-166v233z" />
<glyph unicode="&#xfb04;" horiz-adv-x="1782" d="M684 1556v-153h-158q-90 0 -124 -40q-35 -40 -35 -144v-99h455v78q0 187 78 272.5t248 85.5h461v-1556h-166v1403h-296q-89 0 -124 -40t-35 -144v-99h273v-143h-273v-977h-166v977h-455v-977h-166v977h-159v143h159v78q0 187 78 272.5t248 85.5h157z" />
<glyph unicode="&#x20;&#x64b;" horiz-adv-x="540" arabic-form="isolated" d="M7 1210zM7 1450v110l526 130v-110zM7 1210v110l526 130v-110z" />
<glyph unicode="&#x640;&#x64b;" horiz-adv-x="540" arabic-form="medial" d="M0 0zM-18 0v184h576v-184h-576zM7 1450v110l526 130v-110zM7 1210v110l526 130v-110z" />
<glyph unicode="&#x20;&#x64c;" horiz-adv-x="540" arabic-form="isolated" d="M7 1210zM280 1380q33 36 52 78q-30 7 -51 20q-97 57 -97 151q0 87 62 139q26 21 82 21q66 0 102 -39q49 -54 49 -133q0 -39 -11 -77q18 -1 30 -1q17 -1 35 -1v-110q-43 0 -61 2l-46 5q-24 -61 -91 -139q-77 -86 -162 -86q-102 0 -152 154q-14 41 -14 154h81 q0 -97 11 -123q31 -75 74 -75q51 0 107 60zM367 1558q3 7 5 14q9 21 9 45q0 34 -15.5 48t-33.5 14q-21 0 -31 -9q-16 -13 -16 -41q0 -37 41 -55q17 -8 41 -16z" />
<glyph unicode="&#x20;&#x64d;" horiz-adv-x="540" arabic-form="isolated" d="M7 -10zM7 -490v110l526 130v-110zM7 -250v110l526 130v-110z" />
<glyph unicode="&#x20;&#x64e;" horiz-adv-x="540" arabic-form="isolated" d="M7 1210zM7 1210v110l526 130v-110z" />
<glyph unicode="&#x640;&#x64e;" horiz-adv-x="540" arabic-form="medial" d="M0 0zM7 1210v110l526 130v-110zM-18 0v184h576v-184h-576z" />
<glyph unicode="&#x20;&#x64f;" horiz-adv-x="540" arabic-form="isolated" d="M7 1209zM307 1466q-8 2 -26 12q-97 56 -97 151q0 87 62 139q26 21 82 21q66 0 102 -39q49 -54 49 -133q0 -32 -12 -77q15 -1 31.5 -1.5t34.5 -0.5v-110q-32 0 -61 2q-27 2 -52 5q-38 -61 -101 -103q-180 -123 -312 -123v110q137 0 262 109q21 18 38 38zM367 1558 q3 7 5 14q9 21 9 45q0 34 -15.5 48t-33.5 14q-21 0 -31 -9q-16 -13 -16 -41q0 -37 41 -55q17 -8 41 -16z" />
<glyph unicode="&#x640;&#x64f;" horiz-adv-x="540" arabic-form="medial" d="M0 0zM307 1466q-8 2 -26 12q-97 56 -97 151q0 87 62 139q26 21 82 21q66 0 102 -39q49 -54 49 -133q0 -32 -12 -77q15 -1 31.5 -1.5t34.5 -0.5v-110q-32 0 -61 2q-27 2 -52 5q-38 -61 -101 -103q-180 -123 -312 -123v110q137 0 262 109q21 18 38 38zM367 1558q3 7 5 14 q9 21 9 45q0 34 -15.5 48t-33.5 14q-21 0 -31 -9q-16 -13 -16 -41q0 -37 41 -55q17 -8 41 -16zM-18 0v184h576v-184h-576z" />
<glyph unicode="&#x20;&#x650;" horiz-adv-x="540" arabic-form="isolated" d="M7 -40zM7 -280v110l526 130v-110z" />
<glyph unicode="&#x640;&#x650;" horiz-adv-x="540" arabic-form="medial" d="M0 0zM7 -280v110l526 130v-110zM-18 0v184h576v-184h-576z" />
<glyph unicode="&#x20;&#x651;" horiz-adv-x="540" arabic-form="isolated" d="M0 1227zM284 1412q-13 -76 -43 -116q-52 -69 -113 -69q-72 0 -109 63q-30 52 -30 161t14 207h88q-10 -125 -10 -181q0 -84 22 -118q17 -25 62 -5q55 24 59 194q2 82 2 171h86q3 -36 3 -90q0 -195 80 -195q64 0 64 174q0 115 -12 172h93q11 -73 11 -189q0 -133 -25 -187 q-40 -89 -115 -99q-64 -9 -92 24q-24 30 -35 83z" />
<glyph unicode="&#x640;&#x651;" horiz-adv-x="540" arabic-form="medial" d="M0 0zM284 1412q-13 -76 -43 -116q-52 -69 -113 -69q-72 0 -109 63q-30 52 -30 161t14 207h88q-10 -125 -10 -181q0 -84 22 -118q17 -25 62 -5q55 24 59 194q2 82 2 171h86q3 -36 3 -90q0 -195 80 -195q64 0 64 174q0 115 -12 172h93q11 -73 11 -189q0 -133 -25 -187 q-40 -89 -115 -99q-64 -9 -92 24q-24 30 -35 83zM-18 0v184h576v-184h-576z" />
<glyph unicode="&#x20;&#x652;" horiz-adv-x="540" arabic-form="isolated" d="M21 1249zM405 1524q0 63 -39.5 107t-97.5 44q-59 0 -98 -43.5t-39 -107.5q0 -65 39 -108.5t98 -43.5q58 0 97.5 44t39.5 108zM515 1524q0 -115 -72 -195t-175 -80t-175 80t-72 195t72 194.5t175 79.5t175 -79.5t72 -194.5z" />
<glyph unicode="&#x640;&#x652;" horiz-adv-x="540" arabic-form="medial" d="M0 0zM-18 0v184h576v-184h-576zM405 1524q0 63 -39.5 107t-97.5 44q-59 0 -98 -43.5t-39 -107.5q0 -65 39 -108.5t98 -43.5q58 0 97.5 44t39.5 108zM515 1524q0 -115 -72 -195t-175 -80t-175 80t-72 195t72 194.5t175 79.5t175 -79.5t72 -194.5z" />
<glyph unicode="&#xfedf;&#xfe82;" horiz-adv-x="1051" arabic-form="isolated" d="M0 0zM863 834q0 -300 -125 -518q-50 -85 -119 -156q-184 -180 -327 -180q-95 0 -162 32v184q86 -32 162 -32q102 0 225 152l-441 1094h161l383 -959q26 43 44 98q34 137 34 321v686h165v-722zM-189 1634l144 123q92 -83 153 -104q38 -13 86 -13q52 0 89 16q97 41 176 117 v-125q-82 -64 -162 -93q-61 -22 -108 -22q-31 0 -99 17q-69 17 -131 87l-148 -128v125z" />
<glyph unicode="&#xfee0;&#xfe82;" horiz-adv-x="1099" arabic-form="final" d="M0 0zM738 316q-53 -91 -119 -156q-182 -180 -327 -180q-95 0 -162 32v184q86 -32 162 -32q102 0 225 152l-441 1094h161l383 -959q26 43 44 98q34 137 34 321v686h165v-956q0 -174 31 -258q57 -158 129 -158h95v-184h-116q-158 0 -250 243q-15 41 -14 73zM-189 1634 l144 123q92 -83 153 -104q38 -13 86 -13q52 0 89 16q97 41 176 117v-125q-82 -64 -162 -93q-61 -22 -108 -22q-31 0 -99 17q-69 17 -131 87l-148 -128v125z" />
<glyph unicode="&#xfedf;&#xfe84;" horiz-adv-x="1051" arabic-form="isolated" d="M0 0zM863 834q0 -300 -125 -518q-50 -85 -119 -156q-184 -180 -327 -180q-95 0 -162 32v184q86 -32 162 -32q102 0 225 152l-441 1094h161l383 -959q26 43 44 98q34 137 34 321v686h165v-722zM-24 1515zM-24 1615l70 18q-40 20 -54 56q-14 37 -14 82q0 96 50 139 q52 45 135 45q56 0 103 -33v-100q-45 33 -103 33q-59 0 -75 -18q-26 -32 -26 -58q0 -77 85 -104q29 -10 137 19v-102l-308 -77v100z" />
<glyph unicode="&#xfee0;&#xfe84;" horiz-adv-x="1099" arabic-form="final" d="M0 0zM738 316q-53 -91 -119 -156q-182 -180 -327 -180q-95 0 -162 32v184q86 -32 162 -32q102 0 225 152l-441 1094h161l383 -959q26 43 44 98q34 137 34 321v686h165v-956q0 -174 31 -258q57 -158 129 -158h95v-184h-116q-158 0 -250 243q-15 41 -14 73zM-24 1515z M-24 1615l70 18q-40 20 -54 56q-14 37 -14 82q0 96 50 139q52 45 135 45q56 0 103 -33v-100q-45 33 -103 33q-59 0 -75 -18q-26 -32 -26 -58q0 -77 85 -104q29 -10 137 19v-102l-308 -77v100z" />
<glyph unicode="&#xfedf;&#xfe88;" horiz-adv-x="1051" arabic-form="isolated" d="M21 0zM863 834q0 -300 -125 -518q-50 -85 -119 -156q-184 -180 -327 -180q-95 0 -162 32v184q86 -32 162 -32q102 0 225 152l-441 1094h161l383 -959q26 43 44 98q34 137 34 321v686h165v-722zM21 -60zM21 -400l70 18q-40 20 -54 56q-14 37 -14 82q0 96 50 139 q52 45 135 45q56 0 103 -33v-100q-45 33 -103 33q-59 0 -75 -18q-26 -32 -26 -58q0 -77 85 -104q29 -10 137 19v-102l-308 -77v100z" />
<glyph unicode="&#xfee0;&#xfe88;" horiz-adv-x="1099" arabic-form="final" d="M21 0zM738 316q-53 -91 -119 -156q-182 -180 -327 -180q-95 0 -162 32v184q86 -32 162 -32q102 0 225 152l-441 1094h161l383 -959q26 43 44 98q34 137 34 321v686h165v-956q0 -174 31 -258q57 -158 129 -158h95v-184h-116q-158 0 -250 243q-15 41 -14 73zM21 -60z M21 -400l70 18q-40 20 -54 56q-14 37 -14 82q0 96 50 139q52 45 135 45q56 0 103 -33v-100q-45 33 -103 33q-59 0 -75 -18q-26 -32 -26 -58q0 -77 85 -104q29 -10 137 19v-102l-308 -77v100z" />
<glyph unicode="&#xfedf;&#xfe8e;" horiz-adv-x="1051" arabic-form="isolated" d="M863 834q0 -300 -125 -518q-50 -85 -119 -156q-184 -180 -327 -180q-95 0 -162 32v184q86 -32 162 -32q102 0 225 152l-441 1094h161l383 -959q26 43 44 98q34 137 34 321v686h165v-722z" />
<glyph unicode="&#xfee0;&#xfe8e;" horiz-adv-x="1099" arabic-form="final" d="M738 316q-53 -91 -119 -156q-182 -180 -327 -180q-95 0 -162 32v184q86 -32 162 -32q102 0 225 152l-441 1094h161l383 -959q26 43 44 98q34 137 34 321v686h165v-956q0 -174 31 -258q57 -158 129 -158h95v-184h-116q-158 0 -250 243q-15 41 -14 73z" />
<glyph unicode="&#x64b;&#x651;" horiz-adv-x="0" d="M180 1227zM198 2050v110l526 130v-110zM198 1810v110l526 130v-110zM475 1412q-13 -76 -43 -116q-52 -69 -113 -69q-72 0 -109 63q-30 52 -30 161t14 207h88q-10 -125 -10 -181q0 -84 22 -118q17 -25 62 -5q55 24 59 194q2 82 2 171h86q3 -36 3 -90q0 -195 80 -195 q64 0 64 174q0 115 -12 172h93q11 -73 11 -189q0 -133 -25 -187q-40 -89 -115 -99q-64 -9 -92 24q-24 30 -35 83z" />
<glyph unicode="&#x64c;&#x651;" horiz-adv-x="0" d="M180 1227zM471 1980q33 36 52 78q-30 7 -51 20q-97 57 -97 151q0 87 62 139q26 21 82 21q66 0 102 -39q49 -54 49 -133q0 -39 -11 -77q18 -1 30 -1q17 -1 35 -1v-110q-43 0 -61 2l-46 5q-24 -61 -91 -139q-77 -86 -162 -86q-102 0 -152 154q-14 41 -14 154h81 q0 -97 11 -123q31 -75 74 -75q51 0 107 60zM558 2158q3 7 5 14q9 21 9 45q0 34 -15.5 48t-33.5 14q-21 0 -31 -9q-16 -13 -16 -41q0 -37 41 -55q17 -8 41 -16zM475 1412q-13 -76 -43 -116q-52 -69 -113 -69q-72 0 -109 63q-30 52 -30 161t14 207h88q-10 -125 -10 -181 q0 -84 22 -118q17 -25 62 -5q55 24 59 194q2 82 2 171h86q3 -36 3 -90q0 -195 80 -195q64 0 64 174q0 115 -12 172h93q11 -73 11 -189q0 -133 -25 -187q-40 -89 -115 -99q-64 -9 -92 24q-24 30 -35 83z" />
<glyph unicode="&#x64d;&#x651;" horiz-adv-x="0" d="M180 1210zM475 1912q-13 -76 -43 -116q-52 -69 -113 -69q-72 0 -109 63q-30 52 -30 161t14 207h88q-10 -125 -10 -181q0 -84 22 -118q17 -25 62 -5q55 24 59 194q2 82 2 171h86q3 -36 3 -90q0 -195 80 -195q64 0 64 174q0 115 -12 172h93q11 -73 11 -189q0 -133 -25 -187 q-40 -89 -115 -99q-64 -9 -92 24q-24 30 -35 83zM198 1450v110l526 130v-110zM198 1210v110l526 130v-110z" />
<glyph unicode="&#x64e;&#x651;" horiz-adv-x="0" d="M180 1227zM198 1810v110l526 130v-110zM475 1412q-13 -76 -43 -116q-52 -69 -113 -69q-72 0 -109 63q-30 52 -30 161t14 207h88q-10 -125 -10 -181q0 -84 22 -118q17 -25 62 -5q55 24 59 194q2 82 2 171h86q3 -36 3 -90q0 -195 80 -195q64 0 64 174q0 115 -12 172h93 q11 -73 11 -189q0 -133 -25 -187q-40 -89 -115 -99q-64 -9 -92 24q-24 30 -35 83z" />
<glyph unicode="&#x64f;&#x651;" horiz-adv-x="0" d="M180 1227zM498 2066q-8 2 -26 12q-97 56 -97 151q0 87 62 139q26 21 82 21q66 0 102 -39q49 -54 49 -133q0 -32 -12 -77q15 -1 31.5 -1.5t34.5 -0.5v-110q-32 0 -61 2q-27 2 -52 5q-38 -61 -101 -103q-180 -123 -312 -123v110q137 0 262 109q21 18 38 38zM558 2158 q3 7 5 14q9 21 9 45q0 34 -15.5 48t-33.5 14q-21 0 -31 -9q-16 -13 -16 -41q0 -37 41 -55q17 -8 41 -16zM475 1412q-13 -76 -43 -116q-52 -69 -113 -69q-72 0 -109 63q-30 52 -30 161t14 207h88q-10 -125 -10 -181q0 -84 22 -118q17 -25 62 -5q55 24 59 194q2 82 2 171h86 q3 -36 3 -90q0 -195 80 -195q64 0 64 174q0 115 -12 172h93q11 -73 11 -189q0 -133 -25 -187q-40 -89 -115 -99q-64 -9 -92 24q-24 30 -35 83z" />
<glyph unicode="&#x650;&#x651;" horiz-adv-x="0" d="M180 1210zM475 1712q-13 -76 -43 -116q-52 -69 -113 -69q-72 0 -109 63q-30 52 -30 161t14 207h88q-10 -125 -10 -181q0 -84 22 -118q17 -25 62 -5q55 24 59 194q2 82 2 171h86q3 -36 3 -90q0 -195 80 -195q64 0 64 174q0 115 -12 172h93q11 -73 11 -189q0 -133 -25 -187 q-40 -89 -115 -99q-64 -9 -92 24q-24 30 -35 83zM198 1210v110l526 130v-110z" />
<glyph unicode="&#x64e;&#x654;" horiz-adv-x="0" d="M198 1215zM198 1710v110l526 130v-110zM302 1215zM302 1315l70 18q-40 20 -54 56q-14 37 -14 82q0 96 50 139q52 45 135 45q56 0 103 -33v-100q-45 33 -103 33q-59 0 -75 -18q-26 -32 -26 -58q0 -77 85 -104q29 -10 137 19v-102l-308 -77v100z" />
<glyph unicode="&#x64f;&#x654;" horiz-adv-x="0" d="M198 1215zM498 1966q-8 2 -26 12q-97 56 -97 151q0 87 62 139q26 21 82 21q66 0 102 -39q49 -54 49 -133q0 -32 -12 -77q15 -1 31.5 -1.5t34.5 -0.5v-110q-32 0 -61 2q-27 2 -52 5q-38 -61 -101 -103q-180 -123 -312 -123v110q137 0 262 109q21 18 38 38zM558 2058 q3 7 5 14q9 21 9 45q0 34 -15.5 48t-33.5 14q-21 0 -31 -9q-16 -13 -16 -41q0 -37 41 -55q17 -8 41 -16zM302 1215zM302 1315l70 18q-40 20 -54 56q-14 37 -14 82q0 96 50 139q52 45 135 45q56 0 103 -33v-100q-45 33 -103 33q-59 0 -75 -18q-26 -32 -26 -58q0 -77 85 -104 q29 -10 137 19v-102l-308 -77v100z" />
<glyph unicode="&#x66e;" horiz-adv-x="513" d="M0 0zM269 86q-65 -86 -206 -86h-81v184h32q89 0 128 44q44 49 44 155v217h166v-217q0 -187 -83 -297z" />
<glyph unicode="&#x66e;" horiz-adv-x="556" d="M0 0zM269 86q-69 -86 -206 -86h-81v184h32q89 0 128 44q44 49 44 155v217h166v-217q0 -106 44 -155q40 -44 129 -44h49v-184h-99q-135 0 -206 86z" />
<glyph unicode="&#x66e;" horiz-adv-x="1809" d="M1598 504q0 -208 62 -267q57 -53 114 -53h54v-184h-92q-104 0 -168 73q-72 83 -94 149q-139 -131 -349 -184q-233 -58 -423 -58q-176 0 -288 38q-296 101 -297 365q-1 138 57 230h165q-58 -94 -58 -230q0 -125 183 -192q93 -34 229 -34q234 2 405 57q179 58 290 167 q53 52 53 171q0 62 -26 117h165q18 -75 18 -165z" />
<glyph unicode="&#x66f;" horiz-adv-x="881" d="M0 0zM538 537q37 43 37 120q0 59 -59 110q-28 25 -68 24q-47 -1 -83 -43q-36 -41 -37 -92q0 -80 50 -118q36 -25 74 -25q65 0 86 24zM-18 184h217q75 0 211 23q72 12 126 105q27 48 41 98q-57 -55 -144 -57q-117 -2 -187 67q-88 87 -88 216q0 52 7 96q20 148 155 217 q71 36 139 36q81 0 140 -50q87 -72 128 -174q21 -51 21 -191q0 -208 -70 -351q-67 -136 -178 -180q-99 -39 -229 -39h-289v184z" />
<glyph unicode="&#x66f;" horiz-adv-x="932" d="M0 0zM553 762q164 -80 186 -230q7 -50 7 -92q0 -73 -19 -122q-26 -67 -58 -117q35 -17 167 -17h114v-184h-195q-122 0 -289 57q-166 -57 -289 -57h-195v184h114q133 0 168 17q-26 40 -59 117q-19 46 -19 122q0 44 8 92q20 143 187 230q27 14 85 14q57 0 87 -14zM466 592 q-13 0 -30 -10q-50 -32 -72 -85q-8 -21 -8 -50q0 -43 21 -96q28 -68 89 -90q57 21 89 90q23 50 23 96q0 24 -10 50q-21 52 -72 85q-17 10 -30 10z" />
<glyph unicode="&#x66f;" horiz-adv-x="1537" d="M1087 10q-59 5 -101 18q-108 35 -160 78q-132 109 -132 294q0 61 5 87q36 165 169 234q36 19 115 19q101 0 151 -50q89 -88 134 -233q18 -58 24 -272q23 -1 26 -1h237v-184h-241h-43q-40 -122 -96 -192q-114 -145 -257 -223q-158 -86 -342 -85q-333 2 -418 192 q-62 138 -62 263q0 166 56 262h166q-56 -107 -56 -262q0 -76 24 -134q54 -130 290 -130q126 0 261 68q192 98 250 251zM1126 203q4 122 -16 209q-17 75 -60 110q-30 25 -65 25q-31 0 -50 -10q-46 -27 -65 -85q-9 -30 -9 -55q0 -60 52 -104q68 -59 158 -79q42 -9 55 -11z" />
<glyph unicode="&#x67c;" horiz-adv-x="513" d="M0 0zM0 0zM269 86q-65 -86 -206 -86h-81v184h32q89 0 128 44q44 49 44 155v217h166v-217q0 -187 -83 -297zM314 1000h135v-150h-135v150zM89 1000h135v-150h-135v150zM356 -48q0 40 -25 68q-25 29 -62 29t-62 -28t-25 -69q0 -42 25 -70q25 -27 62 -27t62 28t25 69z M466 -48q0 -92 -56 -156q-58 -64 -141 -64t-139 64q-58 64 -58 156t58 156q56 63 139 63t141 -63q56 -64 56 -156z" />
<glyph unicode="&#x67c;" horiz-adv-x="556" d="M0 0zM0 0zM269 86q-69 -86 -206 -86h-81v184h32q89 0 128 44q44 49 44 155v217h166v-217q0 -106 44 -155q40 -44 129 -44h49v-184h-99q-135 0 -206 86zM314 1000h135v-150h-135v150zM89 1000h135v-150h-135v150zM356 -48q0 40 -25 68q-25 29 -62 29t-62 -28t-25 -69 q0 -42 25 -70q25 -27 62 -27t62 28t25 69zM466 -48q0 -92 -56 -156q-58 -64 -141 -64t-139 64q-58 64 -58 156t58 156q56 63 139 63t141 -63q56 -64 56 -156z" />
<glyph unicode="&#x67c;" horiz-adv-x="1809" d="M117 0zM855 800h135v-150h-135v150zM630 800h135v-150h-135v150zM897 -148q0 40 -25 68q-25 29 -62 29t-62 -28t-25 -69q0 -42 25 -70q25 -27 62 -27t62 28t25 69zM1007 -148q0 -92 -56 -156q-58 -64 -141 -64t-139 64q-58 64 -58 156t58 156q56 63 139 63t141 -63 q56 -64 56 -156zM1598 504q0 -208 62 -267q57 -53 114 -53h54v-184h-92q-104 0 -168 73q-72 83 -94 149q-139 -131 -349 -184q-233 -58 -423 -58q-176 0 -288 38q-296 101 -297 365q-1 138 57 230h165q-58 -94 -58 -230q0 -125 183 -192q93 -34 229 -34q234 2 405 57 q179 58 290 167q53 52 53 171q0 62 -26 117h165q18 -75 18 -165z" />
<glyph unicode="&#x67d;" horiz-adv-x="513" d="M0 0zM0 0zM269 86q-65 -86 -206 -86h-81v184h32q89 0 128 44q44 49 44 155v217h166v-217q0 -187 -83 -297zM201 1000h136v-150h-136v150zM314 1250h135v-150h-135v150zM89 1250h135v-150h-135v150z" />
<glyph unicode="&#x67d;" horiz-adv-x="556" d="M0 0zM0 0zM269 86q-69 -86 -206 -86h-81v184h32q89 0 128 44q44 49 44 155v217h166v-217q0 -106 44 -155q40 -44 129 -44h49v-184h-99q-135 0 -206 86zM201 1000h136v-150h-136v150zM314 1250h135v-150h-135v150zM89 1250h135v-150h-135v150z" />
<glyph unicode="&#x67d;" horiz-adv-x="1809" d="M117 0zM742 700h136v-150h-136v150zM855 950h135v-150h-135v150zM630 950h135v-150h-135v150zM1598 504q0 -208 62 -267q57 -53 114 -53h54v-184h-92q-104 0 -168 73q-72 83 -94 149q-139 -131 -349 -184q-233 -58 -423 -58q-176 0 -288 38q-296 101 -297 365 q-1 138 57 230h165q-58 -94 -58 -230q0 -125 183 -192q93 -34 229 -34q234 2 405 57q179 58 290 167q53 52 53 171q0 62 -26 117h165q18 -75 18 -165z" />
<glyph unicode="&#x681;" horiz-adv-x="1139" d="M0 0zM766 541q-75 23 -168 46q-76 19 -238 35q-74 7 -219 1v184q65 7 133 8q145 0 300 -35q232 -52 430 -150v-154q-68 -24 -147 -76q-150 -98 -216 -164q-131 -129 -198 -156q-199 -80 -346 -80h-115v184h90q204 0 320 72q94 58 198 164q85 86 176 121zM381 915z M381 1015l70 18q-40 20 -54 56q-14 37 -14 82q0 96 50 139q52 45 135 45q56 0 103 -33v-100q-45 33 -103 33q-59 0 -75 -18q-26 -32 -26 -58q0 -77 85 -104q29 -10 137 19v-102l-308 -77v100z" />
<glyph unicode="&#x681;" horiz-adv-x="1189" d="M0 0zM574 780q232 -52 430 -150v-154q-58 -20 -124 -61q45 -78 72 -112q94 -119 196 -119h60v-184h-78q-188 0 -301 168q-36 54 -89 151q-62 -46 -99 -83q-131 -129 -198 -156q-199 -80 -346 -80h-115v184h90q204 0 320 72q94 58 198 164q85 86 176 121q-75 23 -168 46 q-76 19 -238 35q-74 7 -219 1v184q65 7 133 8q145 0 300 -35zM381 915zM381 1015l70 18q-40 20 -54 56q-14 37 -14 82q0 96 50 139q52 45 135 45q56 0 103 -33v-100q-45 33 -103 33q-59 0 -75 -18q-26 -32 -26 -58q0 -77 85 -104q29 -10 137 19v-102l-308 -77v100z" />
<glyph unicode="&#x681;" horiz-adv-x="1189" d="M141 0zM1172 184h36v-184h-44q-116 0 -227 150q-74 100 -129 256q-5 15 -71 193q-103 -24 -191 -104q-201 -183 -201 -435q0 -137 66 -231q116 -164 413 -164q173 0 364 118v-184q-135 -99 -360 -99q-376 0 -528 194q-118 150 -118 374q0 258 191 481q86 101 209 153h-22 q-86 0 -212 -19q-121 -19 -207 -60v184q245 63 419 63q264 0 444 -54v-154q-98 0 -126 -13l26 -91q46 -160 111 -255q81 -119 157 -119zM426 1015zM426 1115l70 18q-40 20 -54 56q-14 37 -14 82q0 96 50 139q52 45 135 45q56 0 103 -33v-100q-45 33 -103 33q-59 0 -75 -18 q-26 -32 -26 -58q0 -77 85 -104q29 -10 137 19v-102l-308 -77v100z" />
<glyph unicode="&#x682;" horiz-adv-x="1139" d="M0 0zM766 541q-75 23 -168 46q-76 19 -238 35q-74 7 -219 1v184q65 7 133 8q145 0 300 -35q232 -52 430 -150v-154q-68 -24 -147 -76q-150 -98 -216 -164q-131 -129 -198 -156q-199 -80 -346 -80h-115v184h90q204 0 320 72q94 58 198 164q85 86 176 121zM472 1100h135 v-150h-135v150zM472 1350h135v-150h-135v150z" />
<glyph unicode="&#x682;" horiz-adv-x="1189" d="M0 0zM574 780q232 -52 430 -150v-154q-58 -20 -124 -61q45 -78 72 -112q94 -119 196 -119h60v-184h-78q-188 0 -301 168q-36 54 -89 151q-62 -46 -99 -83q-131 -129 -198 -156q-199 -80 -346 -80h-115v184h90q204 0 320 72q94 58 198 164q85 86 176 121q-75 23 -168 46 q-76 19 -238 35q-74 7 -219 1v184q65 7 133 8q145 0 300 -35zM472 1100h135v-150h-135v150zM472 1350h135v-150h-135v150z" />
<glyph unicode="&#x682;" horiz-adv-x="1189" d="M141 0zM1172 184h36v-184h-44q-116 0 -227 150q-74 100 -129 256q-5 15 -71 193q-103 -24 -191 -104q-201 -183 -201 -435q0 -137 66 -231q116 -164 413 -164q173 0 364 118v-184q-135 -99 -360 -99q-376 0 -528 194q-118 150 -118 374q0 258 191 481q86 101 209 153h-22 q-86 0 -212 -19q-121 -19 -207 -60v184q245 63 419 63q264 0 444 -54v-154q-98 0 -126 -13l26 -91q46 -160 111 -255q81 -119 157 -119zM518 1200h135v-150h-135v150zM518 1450h135v-150h-135v150z" />
<glyph unicode="&#x685;" horiz-adv-x="1139" d="M0 0zM766 541q-75 23 -168 46q-76 19 -238 35q-74 7 -219 1v184q65 7 133 8q145 0 300 -35q232 -52 430 -150v-154q-68 -24 -147 -76q-150 -98 -216 -164q-131 -129 -198 -156q-199 -80 -346 -80h-115v184h90q204 0 320 72q94 58 198 164q85 86 176 121zM472 1350h136 v-150h-136v150zM585 1100h135v-150h-135v150zM360 1100h135v-150h-135v150z" />
<glyph unicode="&#x685;" horiz-adv-x="1189" d="M0 0zM574 780q232 -52 430 -150v-154q-58 -20 -124 -61q45 -78 72 -112q94 -119 196 -119h60v-184h-78q-188 0 -301 168q-36 54 -89 151q-62 -46 -99 -83q-131 -129 -198 -156q-199 -80 -346 -80h-115v184h90q204 0 320 72q94 58 198 164q85 86 176 121q-75 23 -168 46 q-76 19 -238 35q-74 7 -219 1v184q65 7 133 8q145 0 300 -35zM472 1350h136v-150h-136v150zM585 1100h135v-150h-135v150zM360 1100h135v-150h-135v150z" />
<glyph unicode="&#x685;" horiz-adv-x="1189" d="M141 0zM1172 184h36v-184h-44q-116 0 -227 150q-74 100 -129 256q-5 15 -71 193q-103 -24 -191 -104q-201 -183 -201 -435q0 -137 66 -231q116 -164 413 -164q173 0 364 118v-184q-135 -99 -360 -99q-376 0 -528 194q-118 150 -118 374q0 258 191 481q86 101 209 153h-22 q-86 0 -212 -19q-121 -19 -207 -60v184q245 63 419 63q264 0 444 -54v-154q-98 0 -126 -13l26 -91q46 -160 111 -255q81 -119 157 -119zM517 1450h136v-150h-136v150zM630 1200h135v-150h-135v150zM405 1200h135v-150h-135v150z" />
<glyph unicode="&#x692;" horiz-adv-x="1017" d="M0 0zM563 812l-175 326h125l117 -195l117 195h125l-176 -326h-133zM569 550h165q27 -112 30 -142q9 -103 75 -180q38 -44 129 -44h67v-184h-117q-117 0 -162 62q-61 -278 -287 -411q-256 -151 -545 -151v184q273 0 456 128q196 138 228 346q8 58 8 130q0 126 -47 262z " />
<glyph unicode="&#x695;" horiz-adv-x="1125" d="M0 0zM569 550h165q27 -112 30 -142q9 -103 75 -180q38 -44 129 -44h175v-184h-225q-117 0 -162 62q-61 -278 -287 -411q-256 -151 -545 -151v184q273 0 456 128q196 138 228 346q8 58 8 130q0 126 -47 262zM860 -500l-175 326h125l117 -195l117 195h125l-176 -326h-133z " />
<glyph unicode="&#x6a1;" horiz-adv-x="881" d="M538 537q37 43 37 120q0 59 -59 110q-28 25 -68 24q-47 -1 -83 -43q-36 -41 -37 -92q0 -80 50 -118q36 -25 74 -25q65 0 86 24zM-18 184h217q75 0 211 23q72 12 126 105q27 48 41 98q-57 -55 -144 -57q-117 -2 -187 67q-88 87 -88 216q0 52 7 96q20 148 155 217 q71 36 139 36q81 0 140 -50q87 -72 128 -174q21 -51 21 -191q0 -208 -70 -351q-67 -136 -178 -180q-99 -39 -229 -39h-289v184z" />
<glyph unicode="&#x6a1;" horiz-adv-x="932" d="M553 762q164 -80 186 -230q7 -50 7 -92q0 -73 -19 -122q-26 -67 -58 -117q35 -17 167 -17h114v-184h-195q-122 0 -289 57q-166 -57 -289 -57h-195v184h114q133 0 168 17q-26 40 -59 117q-19 46 -19 122q0 44 8 92q20 143 187 230q27 14 85 14q57 0 87 -14zM466 592 q-13 0 -30 -10q-50 -32 -72 -85q-8 -21 -8 -50q0 -43 21 -96q28 -68 89 -90q57 21 89 90q23 50 23 96q0 24 -10 50q-21 52 -72 85q-17 10 -30 10z" />
<glyph unicode="&#x6a1;" horiz-adv-x="1908" d="M1490 36q-93 -43 -192 -67q-252 -60 -497 -60q-275 1 -387 40q-296 103 -297 365q-1 138 57 230h165q-58 -94 -58 -230q0 -115 183 -192q72 -31 342 -31q208 0 465 54l25 4q-31 27 -57 71q-73 124 -73 245q0 31 3 67q20 155 189 230q52 23 99 23q74 0 147 -50 q123 -83 139 -233q4 -37 4 -67q0 -144 -72 -250q8 -1 14 -1h237v-184h-241q-95 0 -195 36zM1490 223q94 65 94 187q0 20 -4 47q-13 71 -60 110q-30 25 -66 25q-22 0 -42 -10q-55 -25 -72 -85q-5 -19 -5 -37q0 -56 37 -122q44 -78 118 -115z" />
<glyph unicode="&#x6b5;" horiz-adv-x="561" d="M0 0zM238 1662l-175 326h125l117 -195l117 195h125l-176 -326h-133zM388 371q0 -178 -78 -279q-72 -92 -211 -92h-117v184h68q89 0 128 44q44 49 44 155v1173h166v-1185z" />
<glyph unicode="&#x6b5;" horiz-adv-x="610" d="M0 0zM238 1662l-175 326h125l117 -195l117 195h125l-176 -326h-133zM305 86q-69 -86 -206 -86h-117v184h68q89 0 128 44q44 49 44 155v1173h166v-1173q0 -106 44 -155q40 -44 129 -44h67v-184h-117q-135 0 -206 86z" />
<glyph unicode="&#x6b5;" horiz-adv-x="1395" d="M130 0zM1024 1662l-175 326h125l117 -195l117 195h125l-176 -326h-133zM938 73q70 126 70 353v1130h166v-1173q0 -106 44 -155q39 -44 128 -44h68v-184h-117q-101 0 -171 51q-16 -46 -41 -86q-109 -177 -343 -243q-121 -34 -198 -34q-89 0 -151 22q-263 91 -263 365 q-1 138 56 230h166q-59 -115 -59 -230q0 -126 150 -192q36 -16 101 -16q72 0 171 34q156 53 223 172z" />
<glyph unicode="&#x6ba;" horiz-adv-x="513" d="M0 0zM0 0zM269 86q-65 -86 -206 -86h-81v184h32q89 0 128 44q44 49 44 155v217h166v-217q0 -187 -83 -297zM202 1000h135v-150h-135v150z" />
<glyph unicode="&#x6ba;" horiz-adv-x="556" d="M0 0zM0 0zM269 86q-69 -86 -206 -86h-81v184h32q89 0 128 44q44 49 44 155v217h166v-217q0 -106 44 -155q40 -44 129 -44h49v-184h-99q-135 0 -206 86zM202 1000h135v-150h-135v150z" />
<glyph unicode="&#x6bf;" horiz-adv-x="1139" d="M0 0zM766 541q-75 23 -168 46q-76 19 -238 35q-74 7 -219 1v184q65 7 133 8q145 0 300 -35q232 -52 430 -150v-154q-68 -24 -147 -76q-150 -98 -216 -164q-131 -129 -198 -156q-199 -80 -346 -80h-115v184h90q204 0 320 72q94 58 198 164q85 86 176 121zM472 -300h136 v-150h-136v150zM585 -50h135v-150h-135v150zM360 -50h135v-150h-135v150zM472 1100h135v-150h-135v150z" />
<glyph unicode="&#x6bf;" horiz-adv-x="1189" d="M0 0zM574 780q232 -52 430 -150v-154q-58 -20 -124 -61q45 -78 72 -112q94 -119 196 -119h60v-184h-78q-188 0 -301 168q-36 54 -89 151q-62 -46 -99 -83q-131 -129 -198 -156q-199 -80 -346 -80h-115v184h90q204 0 320 72q94 58 198 164q85 86 176 121q-75 23 -168 46 q-76 19 -238 35q-74 7 -219 1v184q65 7 133 8q145 0 300 -35zM483 -300h136v-150h-136v150zM596 -50h135v-150h-135v150zM371 -50h135v-150h-135v150zM472 1100h135v-150h-135v150z" />
<glyph unicode="&#x6bf;" horiz-adv-x="1189" d="M141 0zM1172 184h36v-184h-44q-116 0 -227 150q-74 100 -129 256q-5 15 -71 193q-103 -24 -191 -104q-201 -183 -201 -435q0 -137 66 -231q116 -164 413 -164q173 0 364 118v-184q-135 -99 -360 -99q-376 0 -528 194q-118 150 -118 374q0 258 191 481q86 101 209 153h-22 q-86 0 -212 -19q-121 -19 -207 -60v184q245 63 419 63q264 0 444 -54v-154q-98 0 -126 -13l26 -91q46 -160 111 -255q81 -119 157 -119zM518 1200h135v-150h-135v150zM550 -75h136v-150h-136v150zM663 175h135v-150h-135v150zM438 175h135v-150h-135v150z" />
<glyph unicode="&#x6ce;" horiz-adv-x="513" d="M0 0zM202 762l-175 326h125l117 -195l117 195h125l-176 -326h-133zM314 -150h135v-150h-135v150zM89 -150h135v-150h-135v150zM269 86q-65 -86 -206 -86h-81v184h32q89 0 128 44q44 49 44 155v217h166v-217q0 -187 -83 -297z" />
<glyph unicode="&#x6ce;" horiz-adv-x="556" d="M0 0zM202 762l-175 326h125l117 -195l117 195h125l-176 -326h-133zM314 -150h135v-150h-135v150zM89 -150h135v-150h-135v150zM269 86q-69 -86 -206 -86h-81v184h32q89 0 128 44q44 49 44 155v217h166v-217q0 -106 44 -155q40 -44 129 -44h49v-184h-99q-135 0 -206 86z " />
<glyph unicode="&#x6ce;" horiz-adv-x="1536" d="M117 0zM563 512l-175 326h125l117 -195l117 195h125l-176 -326h-133zM990 -33q82 51 82 84q-1 43 -43 56q-26 8 -53 48q-40 59 -40 120q0 65 47 125q72 94 147 108q27 6 65 6q105 0 184 -134q115 -196 144 -196h31v-184h-31q-103 0 -204 172q-97 165 -120 165 q-33 0 -46 -6q-41 -17 -41 -52q0 -48 59 -75q66 -30 68 -153q3 -98 -99 -184q-115 -96 -311 -127q-80 -12 -174 -12q-169 0 -274 41q-264 103 -264 365q0 153 57 243h165q-58 -90 -58 -243q0 -114 149 -192q60 -31 221 -31q82 0 151 8q134 15 188 48z" />
<glyph unicode="&#x6d5;" horiz-adv-x="988" d="M130 0zM608 282q-13 42 -25 91q-11 50 -22 151q-108 -12 -182 -79q-100 -89 -98 -151q1 -41 82 -66t245 54zM548 668q-4 39 -6 82h165q1 -168 34 -342q19 -101 69 -180q28 -44 129 -44h67v-184h-117q-81 0 -147 51q-40 31 -74 90q-124 -73 -265 -73q-50 0 -102 15 q-171 48 -171 202q0 173 184 300q98 68 234 83z" />
<glyph unicode="&#x67b;" horiz-adv-x="1735" arabic-form="isolated" d="M117 0zM742 -350h135v-150h-135v150zM742 -100h135v-150h-135v150zM1580 669q14 -90 14 -160q0 -135 -68 -236q-116 -171 -401 -235q-257 -58 -423 -58q-172 0 -288 38q-297 97 -297 365q0 138 57 230h165q-58 -94 -58 -230q0 -125 183 -192q93 -34 229 -34q167 0 405 57 q230 54 290 167q49 93 49 168q0 59 -22 120h165z" />
<glyph unicode="&#x67b;" horiz-adv-x="1809" arabic-form="final" d="M117 0zM742 -350h135v-150h-135v150zM742 -100h135v-150h-135v150zM1598 504q0 -208 62 -267q57 -53 114 -53h54v-184h-92q-104 0 -168 73q-72 83 -94 149q-139 -131 -349 -184q-233 -58 -423 -58q-176 0 -288 38q-296 101 -297 365q-1 138 57 230h165q-58 -94 -58 -230 q0 -125 183 -192q93 -34 229 -34q234 2 405 57q179 58 290 167q53 52 53 171q0 62 -26 117h165q18 -75 18 -165z" />
<glyph unicode="&#x67b;" horiz-adv-x="513" arabic-form="initial" d="M0 0zM0 0zM269 86q-65 -86 -206 -86h-81v184h32q89 0 128 44q44 49 44 155v217h166v-217q0 -187 -83 -297zM202 -350h135v-150h-135v150zM202 -100h135v-150h-135v150z" />
<glyph unicode="&#x67b;" horiz-adv-x="556" arabic-form="medial" d="M0 0zM202 -350h135v-150h-135v150zM202 -100h135v-150h-135v150zM0 0zM269 86q-69 -86 -206 -86h-81v184h32q89 0 128 44q44 49 44 155v217h166v-217q0 -106 44 -155q40 -44 129 -44h49v-184h-99q-135 0 -206 86z" />
<glyph unicode="&#x67e;" horiz-adv-x="1735" arabic-form="isolated" d="M117 0zM742 -350h136v-150h-136v150zM855 -100h135v-150h-135v150zM630 -100h135v-150h-135v150zM1580 669q14 -90 14 -160q0 -135 -68 -236q-116 -171 -401 -235q-257 -58 -423 -58q-172 0 -288 38q-297 97 -297 365q0 138 57 230h165q-58 -94 -58 -230q0 -125 183 -192 q93 -34 229 -34q167 0 405 57q230 54 290 167q49 93 49 168q0 59 -22 120h165z" />
<glyph unicode="&#x67e;" horiz-adv-x="1809" arabic-form="final" d="M117 0zM742 -350h136v-150h-136v150zM855 -100h135v-150h-135v150zM630 -100h135v-150h-135v150zM1598 504q0 -208 62 -267q57 -53 114 -53h54v-184h-92q-104 0 -168 73q-72 83 -94 149q-139 -131 -349 -184q-233 -58 -423 -58q-176 0 -288 38q-296 101 -297 365 q-1 138 57 230h165q-58 -94 -58 -230q0 -125 183 -192q93 -34 229 -34q234 2 405 57q179 58 290 167q53 52 53 171q0 62 -26 117h165q18 -75 18 -165z" />
<glyph unicode="&#x67e;" horiz-adv-x="513" arabic-form="initial" d="M0 0zM0 0zM269 86q-65 -86 -206 -86h-81v184h32q89 0 128 44q44 49 44 155v217h166v-217q0 -187 -83 -297zM201 -350h136v-150h-136v150zM314 -100h135v-150h-135v150zM89 -100h135v-150h-135v150z" />
<glyph unicode="&#x67e;" horiz-adv-x="556" arabic-form="medial" d="M0 0zM0 0zM269 86q-69 -86 -206 -86h-81v184h32q89 0 128 44q44 49 44 155v217h166v-217q0 -106 44 -155q40 -44 129 -44h49v-184h-99q-135 0 -206 86zM201 -350h136v-150h-136v150zM314 -100h135v-150h-135v150zM89 -100h135v-150h-135v150z" />
<glyph unicode="&#x680;" horiz-adv-x="1735" arabic-form="isolated" d="M117 0zM855 -350h135v-150h-135v150zM855 -100h135v-150h-135v150zM630 -350h135v-150h-135v150zM630 -100h135v-150h-135v150zM1580 669q14 -90 14 -160q0 -135 -68 -236q-116 -171 -401 -235q-257 -58 -423 -58q-172 0 -288 38q-297 97 -297 365q0 138 57 230h165 q-58 -94 -58 -230q0 -125 183 -192q93 -34 229 -34q167 0 405 57q230 54 290 167q49 93 49 168q0 59 -22 120h165z" />
<glyph unicode="&#x680;" horiz-adv-x="1809" arabic-form="final" d="M117 0zM855 -350h135v-150h-135v150zM855 -100h135v-150h-135v150zM630 -350h135v-150h-135v150zM630 -100h135v-150h-135v150zM1598 504q0 -208 62 -267q57 -53 114 -53h54v-184h-92q-104 0 -168 73q-72 83 -94 149q-139 -131 -349 -184q-233 -58 -423 -58 q-176 0 -288 38q-296 101 -297 365q-1 138 57 230h165q-58 -94 -58 -230q0 -125 183 -192q93 -34 229 -34q234 2 405 57q179 58 290 167q53 52 53 171q0 62 -26 117h165q18 -75 18 -165z" />
<glyph unicode="&#x680;" horiz-adv-x="513" arabic-form="initial" d="M0 0zM0 0zM269 86q-65 -86 -206 -86h-81v184h32q89 0 128 44q44 49 44 155v217h166v-217q0 -187 -83 -297zM314 -350h135v-150h-135v150zM314 -100h135v-150h-135v150zM89 -350h135v-150h-135v150zM89 -100h135v-150h-135v150z" />
<glyph unicode="&#x680;" horiz-adv-x="556" arabic-form="medial" d="M0 0zM0 0zM269 86q-69 -86 -206 -86h-81v184h32q89 0 128 44q44 49 44 155v217h166v-217q0 -106 44 -155q40 -44 129 -44h49v-184h-99q-135 0 -206 86zM314 -350h135v-150h-135v150zM314 -100h135v-150h-135v150zM89 -350h135v-150h-135v150zM89 -100h135v-150h-135v150z " />
<glyph unicode="&#x67a;" horiz-adv-x="1735" arabic-form="isolated" d="M117 0zM742 800h135v-150h-135v150zM742 1050h135v-150h-135v150zM1580 669q14 -90 14 -160q0 -135 -68 -236q-116 -171 -401 -235q-257 -58 -423 -58q-172 0 -288 38q-297 97 -297 365q0 138 57 230h165q-58 -94 -58 -230q0 -125 183 -192q93 -34 229 -34q167 0 405 57 q230 54 290 167q49 93 49 168q0 59 -22 120h165z" />
<glyph unicode="&#x67a;" horiz-adv-x="1809" arabic-form="final" d="M117 0zM742 800h135v-150h-135v150zM742 1050h135v-150h-135v150zM1598 504q0 -208 62 -267q57 -53 114 -53h54v-184h-92q-104 0 -168 73q-72 83 -94 149q-139 -131 -349 -184q-233 -58 -423 -58q-176 0 -288 38q-296 101 -297 365q-1 138 57 230h165q-58 -94 -58 -230 q0 -125 183 -192q93 -34 229 -34q234 2 405 57q179 58 290 167q53 52 53 171q0 62 -26 117h165q18 -75 18 -165z" />
<glyph unicode="&#x67a;" horiz-adv-x="513" arabic-form="initial" d="M0 0zM0 0zM269 86q-65 -86 -206 -86h-81v184h32q89 0 128 44q44 49 44 155v217h166v-217q0 -187 -83 -297zM202 1000h135v-150h-135v150zM202 1250h135v-150h-135v150z" />
<glyph unicode="&#x67a;" horiz-adv-x="556" arabic-form="medial" d="M0 0zM0 0zM269 86q-69 -86 -206 -86h-81v184h32q89 0 128 44q44 49 44 155v217h166v-217q0 -106 44 -155q40 -44 129 -44h49v-184h-99q-135 0 -206 86zM202 1000h135v-150h-135v150zM202 1250h135v-150h-135v150z" />
<glyph unicode="&#x67f;" horiz-adv-x="1735" arabic-form="isolated" d="M117 0zM855 800h135v-150h-135v150zM855 1050h135v-150h-135v150zM630 800h135v-150h-135v150zM630 1050h135v-150h-135v150zM1580 669q14 -90 14 -160q0 -135 -68 -236q-116 -171 -401 -235q-257 -58 -423 -58q-172 0 -288 38q-297 97 -297 365q0 138 57 230h165 q-58 -94 -58 -230q0 -125 183 -192q93 -34 229 -34q167 0 405 57q230 54 290 167q49 93 49 168q0 59 -22 120h165z" />
<glyph unicode="&#x67f;" horiz-adv-x="1809" arabic-form="final" d="M117 0zM1598 504q0 -208 62 -267q57 -53 114 -53h54v-184h-92q-104 0 -168 73q-72 83 -94 149q-139 -131 -349 -184q-233 -58 -423 -58q-176 0 -288 38q-296 101 -297 365q-1 138 57 230h165q-58 -94 -58 -230q0 -125 183 -192q93 -34 229 -34q234 2 405 57 q179 58 290 167q53 52 53 171q0 62 -26 117h165q18 -75 18 -165zM855 800h135v-150h-135v150zM855 1050h135v-150h-135v150zM630 800h135v-150h-135v150zM630 1050h135v-150h-135v150z" />
<glyph unicode="&#x67f;" horiz-adv-x="513" arabic-form="initial" d="M0 0zM0 0zM269 86q-65 -86 -206 -86h-81v184h32q89 0 128 44q44 49 44 155v217h166v-217q0 -187 -83 -297zM314 1000h135v-150h-135v150zM314 1250h135v-150h-135v150zM89 1000h135v-150h-135v150zM89 1250h135v-150h-135v150z" />
<glyph unicode="&#x67f;" horiz-adv-x="556" arabic-form="medial" d="M0 0zM0 0zM269 86q-69 -86 -206 -86h-81v184h32q89 0 128 44q44 49 44 155v217h166v-217q0 -106 44 -155q40 -44 129 -44h49v-184h-99q-135 0 -206 86zM314 1000h135v-150h-135v150zM314 1250h135v-150h-135v150zM89 1000h135v-150h-135v150zM89 1250h135v-150h-135v150z " />
<glyph unicode="&#x679;" horiz-adv-x="1735" arabic-form="isolated" d="M117 0zM764 778h49q71 0 90 13q48 33 48 54q0 32 -27 48q-1 1 -65 -27q-46 -21 -95 -88zM834 677h-157h-101v101h73v399h92v-321q32 73 126 113q56 24 119 -2q59 -25 59 -107q0 -91 -58 -141q-48 -42 -153 -42zM1580 669q14 -90 14 -160q0 -135 -68 -236 q-116 -171 -401 -235q-257 -58 -423 -58q-172 0 -288 38q-297 97 -297 365q0 138 57 230h165q-58 -94 -58 -230q0 -125 183 -192q93 -34 229 -34q167 0 405 57q230 54 290 167q49 93 49 168q0 59 -22 120h165z" />
<glyph unicode="&#x679;" horiz-adv-x="1809" arabic-form="final" d="M117 0zM1598 504q0 -208 62 -267q57 -53 114 -53h54v-184h-92q-104 0 -168 73q-72 83 -94 149q-139 -131 -349 -184q-233 -58 -423 -58q-176 0 -288 38q-296 101 -297 365q-1 138 57 230h165q-58 -94 -58 -230q0 -125 183 -192q93 -34 229 -34q234 2 405 57 q179 58 290 167q53 52 53 171q0 62 -26 117h165q18 -75 18 -165zM764 778h49q71 0 90 13q48 33 48 54q0 32 -27 48q-1 1 -65 -27q-46 -21 -95 -88zM834 677h-157h-101v101h73v399h92v-321q32 73 126 113q56 24 119 -2q59 -25 59 -107q0 -91 -58 -141q-48 -42 -153 -42z" />
<glyph unicode="&#x679;" horiz-adv-x="513" arabic-form="initial" d="M0 0zM0 0zM269 86q-65 -86 -206 -86h-81v184h32q89 0 128 44q44 49 44 155v217h166v-217q0 -187 -83 -297zM223 978h49q71 0 90 13q48 33 48 54q0 32 -27 48q-1 1 -65 -27q-46 -21 -95 -88zM293 877h-157h-101v101h73v399h92v-321q32 73 126 113q56 24 119 -2 q59 -25 59 -107q0 -91 -58 -141q-48 -42 -153 -42z" />
<glyph unicode="&#x679;" horiz-adv-x="556" arabic-form="medial" d="M0 0zM0 0zM269 86q-69 -86 -206 -86h-81v184h32q89 0 128 44q44 49 44 155v217h166v-217q0 -106 44 -155q40 -44 129 -44h49v-184h-99q-135 0 -206 86zM223 978h49q71 0 90 13q48 33 48 54q0 32 -27 48q-1 1 -65 -27q-46 -21 -95 -88zM293 877h-157h-101v101h73v399h92 v-321q32 73 126 113q56 24 119 -2q59 -25 59 -107q0 -91 -58 -141q-48 -42 -153 -42z" />
<glyph unicode="&#x6a4;" horiz-adv-x="1910" arabic-form="isolated" d="M117 0zM1372 1550h136v-150h-136v150zM1485 1300h135v-150h-135v150zM1260 1300h135v-150h-135v150zM1545 537q37 43 37 120q0 59 -59 110q-28 25 -68 24q-47 -1 -83 -43q-36 -41 -36 -92q0 -80 49 -118q36 -25 74 -25q65 0 86 24zM1685 219q-99 -180 -385 -250 q-245 -61 -504 -61q-265 0 -382 41q-296 100 -297 365q-1 138 57 230h165q-58 -94 -58 -230q0 -116 183 -192q80 -34 332 -34q289 0 478 57q193 59 283 167q31 38 49 116q-56 -75 -166 -75q-120 0 -187 67q-88 87 -88 216q0 52 7 96q20 148 156 217q70 36 138 36 q81 0 140 -50q87 -72 128 -174q22 -54 21 -191q-2 -226 -70 -351z" />
<glyph unicode="&#x6a4;" horiz-adv-x="1908" arabic-form="final" d="M117 0zM1490 36q-93 -43 -192 -67q-252 -60 -497 -60q-275 1 -387 40q-296 103 -297 365q-1 138 57 230h165q-58 -94 -58 -230q0 -115 183 -192q72 -31 342 -31q208 0 465 54l25 4q-31 27 -57 71q-73 124 -73 245q0 31 3 67q20 155 189 230q52 23 99 23q74 0 147 -50 q123 -83 139 -233q4 -37 4 -67q0 -144 -72 -250q8 -1 14 -1h237v-184h-241q-95 0 -195 36zM1490 223q94 65 94 187q0 20 -4 47q-13 71 -60 110q-30 25 -66 25q-22 0 -42 -10q-55 -25 -72 -85q-5 -19 -5 -37q0 -56 37 -122q44 -78 118 -115zM1372 1350h136v-150h-136v150z M1485 1100h135v-150h-135v150zM1260 1100h135v-150h-135v150z" />
<glyph unicode="&#x6a4;" horiz-adv-x="881" arabic-form="initial" d="M0 0zM538 537q37 43 37 120q0 59 -59 110q-28 25 -68 24q-47 -1 -83 -43q-36 -41 -37 -92q0 -80 50 -118q36 -25 74 -25q65 0 86 24zM-18 184h217q75 0 211 23q72 12 126 105q27 48 41 98q-57 -55 -144 -57q-117 -2 -187 67q-88 87 -88 216q0 52 7 96q20 148 155 217 q71 36 139 36q81 0 140 -50q87 -72 128 -174q21 -51 21 -191q0 -208 -70 -351q-67 -136 -178 -180q-99 -39 -229 -39h-289v184zM382 1550h136v-150h-136v150zM495 1300h135v-150h-135v150zM270 1300h135v-150h-135v150z" />
<glyph unicode="&#x6a4;" horiz-adv-x="932" arabic-form="medial" d="M0 0zM553 762q164 -80 186 -230q7 -50 7 -92q0 -73 -19 -122q-26 -67 -58 -117q35 -17 167 -17h114v-184h-195q-122 0 -289 57q-166 -57 -289 -57h-195v184h114q133 0 168 17q-26 40 -59 117q-19 46 -19 122q0 44 8 92q20 143 187 230q27 14 85 14q57 0 87 -14zM466 592 q-13 0 -30 -10q-50 -32 -72 -85q-8 -21 -8 -50q0 -43 21 -96q28 -68 89 -90q57 21 89 90q23 50 23 96q0 24 -10 50q-21 52 -72 85q-17 10 -30 10zM398 1400h136v-150h-136v150zM511 1150h135v-150h-135v150zM286 1150h135v-150h-135v150z" />
<glyph unicode="&#x6a6;" horiz-adv-x="1910" arabic-form="isolated" d="M117 0zM1485 1300h135v-150h-135v150zM1485 1550h135v-150h-135v150zM1260 1300h135v-150h-135v150zM1260 1550h135v-150h-135v150zM1545 537q37 43 37 120q0 59 -59 110q-28 25 -68 24q-47 -1 -83 -43q-36 -41 -36 -92q0 -80 49 -118q36 -25 74 -25q65 0 86 24z M1685 219q-99 -180 -385 -250q-245 -61 -504 -61q-265 0 -382 41q-296 100 -297 365q-1 138 57 230h165q-58 -94 -58 -230q0 -116 183 -192q80 -34 332 -34q289 0 478 57q193 59 283 167q31 38 49 116q-56 -75 -166 -75q-120 0 -187 67q-88 87 -88 216q0 52 7 96 q20 148 156 217q70 36 138 36q81 0 140 -50q87 -72 128 -174q22 -54 21 -191q-2 -226 -70 -351z" />
<glyph unicode="&#x6a6;" horiz-adv-x="1908" arabic-form="final" d="M117 0zM1490 36q-93 -43 -192 -67q-252 -60 -497 -60q-275 1 -387 40q-296 103 -297 365q-1 138 57 230h165q-58 -94 -58 -230q0 -115 183 -192q72 -31 342 -31q208 0 465 54l25 4q-31 27 -57 71q-73 124 -73 245q0 31 3 67q20 155 189 230q52 23 99 23q74 0 147 -50 q123 -83 139 -233q4 -37 4 -67q0 -144 -72 -250q8 -1 14 -1h237v-184h-241q-95 0 -195 36zM1490 223q94 65 94 187q0 20 -4 47q-13 71 -60 110q-30 25 -66 25q-22 0 -42 -10q-55 -25 -72 -85q-5 -19 -5 -37q0 -56 37 -122q44 -78 118 -115zM1485 1100h135v-150h-135v150z M1485 1350h135v-150h-135v150zM1260 1100h135v-150h-135v150zM1260 1350h135v-150h-135v150z" />
<glyph unicode="&#x6a6;" horiz-adv-x="881" arabic-form="initial" d="M0 0zM538 537q37 43 37 120q0 59 -59 110q-28 25 -68 24q-47 -1 -83 -43q-36 -41 -37 -92q0 -80 50 -118q36 -25 74 -25q65 0 86 24zM-18 184h217q75 0 211 23q72 12 126 105q27 48 41 98q-57 -55 -144 -57q-117 -2 -187 67q-88 87 -88 216q0 52 7 96q20 148 155 217 q71 36 139 36q81 0 140 -50q87 -72 128 -174q21 -51 21 -191q0 -208 -70 -351q-67 -136 -178 -180q-99 -39 -229 -39h-289v184zM495 1300h135v-150h-135v150zM495 1550h135v-150h-135v150zM270 1300h135v-150h-135v150zM270 1550h135v-150h-135v150z" />
<glyph unicode="&#x6a6;" horiz-adv-x="932" arabic-form="medial" d="M0 0zM553 762q164 -80 186 -230q7 -50 7 -92q0 -73 -19 -122q-26 -67 -58 -117q35 -17 167 -17h114v-184h-195q-122 0 -289 57q-166 -57 -289 -57h-195v184h114q133 0 168 17q-26 40 -59 117q-19 46 -19 122q0 44 8 92q20 143 187 230q27 14 85 14q57 0 87 -14zM466 592 q-13 0 -30 -10q-50 -32 -72 -85q-8 -21 -8 -50q0 -43 21 -96q28 -68 89 -90q57 21 89 90q23 50 23 96q0 24 -10 50q-21 52 -72 85q-17 10 -30 10zM511 1150h135v-150h-135v150zM511 1400h135v-150h-135v150zM286 1150h135v-150h-135v150zM286 1400h135v-150h-135v150z" />
<glyph unicode="&#x684;" horiz-adv-x="1189" arabic-form="isolated" d="M141 0zM698 75h135v-150h-135v150zM698 325h135v-150h-135v150zM141 807q249 63 424 63q263 0 439 -54v-154q-264 0 -458 -167q-201 -174 -201 -435q0 -135 66 -231q115 -164 413 -164q173 0 364 118v-184q-135 -99 -360 -99q-376 0 -528 194q-118 150 -118 374 q0 258 191 481q86 101 209 153q-91 0 -234 -19q-113 -15 -207 -60v184z" />
<glyph unicode="&#x684;" horiz-adv-x="1189" arabic-form="final" d="M141 0zM608 25h135v-150h-135v150zM608 275h135v-150h-135v150zM1172 184h36v-184h-44q-116 0 -227 150q-74 100 -129 256q-5 15 -71 193q-103 -24 -191 -104q-201 -183 -201 -435q0 -137 66 -231q116 -164 413 -164q173 0 364 118v-184q-135 -99 -360 -99 q-376 0 -528 194q-118 150 -118 374q0 258 191 481q86 101 209 153h-22q-86 0 -212 -19q-121 -19 -207 -60v184q245 63 419 63q264 0 444 -54v-154q-98 0 -126 -13l26 -91q46 -160 111 -255q81 -119 157 -119z" />
<glyph unicode="&#x684;" horiz-adv-x="1139" arabic-form="initial" d="M0 0zM766 541q-75 23 -168 46q-76 19 -238 35q-74 7 -219 1v184q65 7 133 8q145 0 300 -35q232 -52 430 -150v-154q-68 -24 -147 -76q-150 -98 -216 -164q-131 -129 -198 -156q-199 -80 -346 -80h-115v184h90q204 0 320 72q94 58 198 164q85 86 176 121zM472 -300h135 v-150h-135v150zM472 -50h135v-150h-135v150z" />
<glyph unicode="&#x684;" horiz-adv-x="1189" arabic-form="medial" d="M0 0zM574 780q232 -52 430 -150v-154q-58 -20 -124 -61q45 -78 72 -112q94 -119 196 -119h60v-184h-78q-188 0 -301 168q-36 54 -89 151q-62 -46 -99 -83q-131 -129 -198 -156q-199 -80 -346 -80h-115v184h90q204 0 320 72q94 58 198 164q85 86 176 121q-75 23 -168 46 q-76 19 -238 35q-74 7 -219 1v184q65 7 133 8q145 0 300 -35zM472 -300h135v-150h-135v150zM472 -50h135v-150h-135v150z" />
<glyph unicode="&#x683;" horiz-adv-x="1189" arabic-form="isolated" d="M141 0zM810 175h135v-150h-135v150zM585 175h135v-150h-135v150zM141 807q249 63 424 63q263 0 439 -54v-154q-264 0 -458 -167q-201 -174 -201 -435q0 -135 66 -231q115 -164 413 -164q173 0 364 118v-184q-135 -99 -360 -99q-376 0 -528 194q-118 150 -118 374 q0 258 191 481q86 101 209 153q-91 0 -234 -19q-113 -15 -207 -60v184z" />
<glyph unicode="&#x683;" horiz-adv-x="1189" arabic-form="final" d="M141 0zM720 125h135v-150h-135v150zM495 125h135v-150h-135v150zM1172 184h36v-184h-44q-116 0 -227 150q-74 100 -129 256q-5 15 -71 193q-103 -24 -191 -104q-201 -183 -201 -435q0 -137 66 -231q116 -164 413 -164q173 0 364 118v-184q-135 -99 -360 -99 q-376 0 -528 194q-118 150 -118 374q0 258 191 481q86 101 209 153h-22q-86 0 -212 -19q-121 -19 -207 -60v184q245 63 419 63q264 0 444 -54v-154q-98 0 -126 -13l26 -91q46 -160 111 -255q81 -119 157 -119z" />
<glyph unicode="&#x683;" horiz-adv-x="1139" arabic-form="initial" d="M0 0zM766 541q-75 23 -168 46q-76 19 -238 35q-74 7 -219 1v184q65 7 133 8q145 0 300 -35q232 -52 430 -150v-154q-68 -24 -147 -76q-150 -98 -216 -164q-131 -129 -198 -156q-199 -80 -346 -80h-115v184h90q204 0 320 72q94 58 198 164q85 86 176 121zM585 -50h135 v-150h-135v150zM360 -50h135v-150h-135v150z" />
<glyph unicode="&#x683;" horiz-adv-x="1189" arabic-form="medial" d="M0 0zM574 780q232 -52 430 -150v-154q-58 -20 -124 -61q45 -78 72 -112q94 -119 196 -119h60v-184h-78q-188 0 -301 168q-36 54 -89 151q-62 -46 -99 -83q-131 -129 -198 -156q-199 -80 -346 -80h-115v184h90q204 0 320 72q94 58 198 164q85 86 176 121q-75 23 -168 46 q-76 19 -238 35q-74 7 -219 1v184q65 7 133 8q145 0 300 -35zM585 -50h135v-150h-135v150zM360 -50h135v-150h-135v150z" />
<glyph unicode="&#x686;" horiz-adv-x="1189" arabic-form="isolated" d="M141 0zM708 50h136v-150h-136v150zM821 300h135v-150h-135v150zM596 300h135v-150h-135v150zM141 807q249 63 424 63q263 0 439 -54v-154q-264 0 -458 -167q-201 -174 -201 -435q0 -135 66 -231q115 -164 413 -164q173 0 364 118v-184q-135 -99 -360 -99q-376 0 -528 194 q-118 150 -118 374q0 258 191 481q86 101 209 153q-91 0 -234 -19q-113 -15 -207 -60v184z" />
<glyph unicode="&#x686;" horiz-adv-x="1189" arabic-form="final" d="M141 0zM595 -50h136v-150h-136v150zM708 200h135v-150h-135v150zM483 200h135v-150h-135v150zM1172 184h36v-184h-44q-116 0 -227 150q-74 100 -129 256q-5 15 -71 193q-103 -24 -191 -104q-201 -183 -201 -435q0 -137 66 -231q116 -164 413 -164q173 0 364 118v-184 q-135 -99 -360 -99q-376 0 -528 194q-118 150 -118 374q0 258 191 481q86 101 209 153h-22q-86 0 -212 -19q-121 -19 -207 -60v184q245 63 419 63q264 0 444 -54v-154q-98 0 -126 -13l26 -91q46 -160 111 -255q81 -119 157 -119z" />
<glyph unicode="&#x686;" horiz-adv-x="1139" arabic-form="initial" d="M0 0zM766 541q-75 23 -168 46q-76 19 -238 35q-74 7 -219 1v184q65 7 133 8q145 0 300 -35q232 -52 430 -150v-154q-68 -24 -147 -76q-150 -98 -216 -164q-131 -129 -198 -156q-199 -80 -346 -80h-115v184h90q204 0 320 72q94 58 198 164q85 86 176 121zM472 -300h136 v-150h-136v150zM585 -50h135v-150h-135v150zM360 -50h135v-150h-135v150z" />
<glyph unicode="&#x686;" horiz-adv-x="1189" arabic-form="medial" d="M0 0zM574 780q232 -52 430 -150v-154q-58 -20 -124 -61q45 -78 72 -112q94 -119 196 -119h60v-184h-78q-188 0 -301 168q-36 54 -89 151q-62 -46 -99 -83q-131 -129 -198 -156q-199 -80 -346 -80h-115v184h90q204 0 320 72q94 58 198 164q85 86 176 121q-75 23 -168 46 q-76 19 -238 35q-74 7 -219 1v184q65 7 133 8q145 0 300 -35zM472 -300h136v-150h-136v150zM585 -50h135v-150h-135v150zM360 -50h135v-150h-135v150z" />
<glyph unicode="&#x687;" horiz-adv-x="1189" arabic-form="isolated" d="M141 0zM821 75h135v-150h-135v150zM821 325h135v-150h-135v150zM596 75h135v-150h-135v150zM596 325h135v-150h-135v150zM141 807q249 63 424 63q263 0 439 -54v-154q-264 0 -458 -167q-201 -174 -201 -435q0 -135 66 -231q115 -164 413 -164q173 0 364 118v-184 q-135 -99 -360 -99q-376 0 -528 194q-118 150 -118 374q0 258 191 481q86 101 209 153q-91 0 -234 -19q-113 -15 -207 -60v184z" />
<glyph unicode="&#x687;" horiz-adv-x="1189" arabic-form="final" d="M141 0zM708 -50h135v-150h-135v150zM708 200h135v-150h-135v150zM483 -50h135v-150h-135v150zM483 200h135v-150h-135v150zM1172 184h36v-184h-44q-116 0 -227 150q-74 100 -129 256q-5 15 -71 193q-103 -24 -191 -104q-201 -183 -201 -435q0 -137 66 -231 q116 -164 413 -164q173 0 364 118v-184q-135 -99 -360 -99q-376 0 -528 194q-118 150 -118 374q0 258 191 481q86 101 209 153h-22q-86 0 -212 -19q-121 -19 -207 -60v184q245 63 419 63q264 0 444 -54v-154q-98 0 -126 -13l26 -91q46 -160 111 -255q81 -119 157 -119z" />
<glyph unicode="&#x687;" horiz-adv-x="1139" arabic-form="initial" d="M0 0zM766 541q-75 23 -168 46q-76 19 -238 35q-74 7 -219 1v184q65 7 133 8q145 0 300 -35q232 -52 430 -150v-154q-68 -24 -147 -76q-150 -98 -216 -164q-131 -129 -198 -156q-199 -80 -346 -80h-115v184h90q204 0 320 72q94 58 198 164q85 86 176 121zM585 -300h135 v-150h-135v150zM585 -50h135v-150h-135v150zM360 -300h135v-150h-135v150zM360 -50h135v-150h-135v150z" />
<glyph unicode="&#x687;" horiz-adv-x="1189" arabic-form="medial" d="M0 0zM574 780q232 -52 430 -150v-154q-58 -20 -124 -61q45 -78 72 -112q94 -119 196 -119h60v-184h-78q-188 0 -301 168q-36 54 -89 151q-62 -46 -99 -83q-131 -129 -198 -156q-199 -80 -346 -80h-115v184h90q204 0 320 72q94 58 198 164q85 86 176 121q-75 23 -168 46 q-76 19 -238 35q-74 7 -219 1v184q65 7 133 8q145 0 300 -35zM585 -300h135v-150h-135v150zM585 -50h135v-150h-135v150zM360 -300h135v-150h-135v150zM360 -50h135v-150h-135v150z" />
<glyph unicode="&#x698;" horiz-adv-x="890" arabic-form="isolated" d="M0 0zM562 1200h136v-150h-136v150zM675 950h135v-150h-135v150zM450 950h135v-150h-135v150zM608 158q8 58 8 130q0 126 -47 262h165q45 -118 45 -250q0 -82 -7 -144q-41 -350 -303 -505q-256 -151 -545 -151v184q273 0 456 128q196 138 228 346z" />
<glyph unicode="&#x698;" horiz-adv-x="1017" arabic-form="final" d="M0 0zM569 550h165q27 -112 30 -142q9 -103 75 -180q38 -44 129 -44h67v-184h-117q-117 0 -162 62q-61 -278 -287 -411q-256 -151 -545 -151v184q273 0 456 128q196 138 228 346q8 58 8 130q0 126 -47 262zM562 1200h136v-150h-136v150zM675 950h135v-150h-135v150z M450 950h135v-150h-135v150z" />
<glyph unicode="&#x691;" horiz-adv-x="890" arabic-form="isolated" d="M0 0zM608 158q8 58 8 130q0 126 -47 262h165q45 -118 45 -250q0 -82 -7 -144q-41 -350 -303 -505q-256 -151 -545 -151v184q273 0 456 128q196 138 228 346zM584 928h49q71 0 90 13q48 33 48 54q0 32 -27 48q-1 1 -65 -27q-46 -21 -95 -88zM654 827h-157h-101v101h73v399 h92v-321q32 73 126 113q56 24 119 -2q59 -25 59 -107q0 -91 -58 -141q-48 -42 -153 -42z" />
<glyph unicode="&#x691;" horiz-adv-x="1017" arabic-form="final" d="M0 0zM569 550h165q27 -112 30 -142q9 -103 75 -180q38 -44 129 -44h67v-184h-117q-117 0 -162 62q-61 -278 -287 -411q-256 -151 -545 -151v184q273 0 456 128q196 138 228 346q8 58 8 130q0 126 -47 262zM584 928h49q71 0 90 13q48 33 48 54q0 32 -27 48q-1 1 -65 -27 q-46 -21 -95 -88zM654 827h-157h-101v101h73v399h92v-321q32 73 126 113q56 24 119 -2q59 -25 59 -107q0 -91 -58 -141q-48 -42 -153 -42z" />
<glyph unicode="&#x6a9;" horiz-adv-x="1649" arabic-form="isolated" d="M117 0zM693 88q166 0 340 80q141 65 174 120q14 26 14 72q0 69 -48 135l-279 380q-45 61 -45 142q0 35 9 68q31 119 121 161l671 310v-186l-536 -250q-64 -30 -83 -70q-5 -11 -5 -36q0 -32 28 -69l247 -330q92 -123 92 -246q0 -113 -56 -214q-47 -86 -286 -171 q-204 -73 -349 -73q-172 0 -288 38q-297 98 -297 365q0 138 57 230h165q-58 -94 -58 -230q0 -126 183 -192q93 -34 229 -34z" />
<glyph unicode="&#x6a9;" horiz-adv-x="1649" arabic-form="final" d="M1292 120q-89 -76 -241 -136q-184 -73 -349 -73q-173 0 -288 38q-297 98 -297 365q0 138 57 230h165q-58 -94 -58 -230q0 -126 183 -192q93 -34 229 -34q166 0 340 80q142 65 174 120q14 26 14 72q0 69 -48 135l-279 380q-45 61 -45 142q0 35 9 68q31 119 121 161 l671 310v-186l-536 -250q-64 -30 -83 -70q-5 -11 -5 -36q0 -32 28 -69l525 -705q19 -26 54 -40q38 -16 96 -16h79v-184h-119q-58 0 -110 24q-93 43 -123 84l-87 120q-23 -64 -77 -108z" />
<glyph unicode="&#x6a9;" horiz-adv-x="877" arabic-form="initial" d="M0 0zM279 0h-297v184h279q133 0 174 104q14 36 14 72q0 69 -49 135l-278 380q-46 61 -46 142q0 35 10 68q27 118 121 161l671 310v-186l-536 -250q-64 -30 -83 -70q-5 -11 -5 -36q0 -32 28 -69l247 -330q92 -123 92 -246q0 -113 -56 -214q-85 -155 -286 -155z" />
<glyph unicode="&#x6a9;" horiz-adv-x="1017" arabic-form="medial" d="M0 0zM279 0h-297v184h279q133 0 174 104q14 36 14 72q0 69 -49 135l-278 380q-46 61 -46 142q0 35 10 68q27 118 121 161l671 310v-186l-536 -250q-64 -30 -83 -70q-5 -11 -5 -36q0 -32 28 -69l524 -705q20 -26 54 -40q39 -16 97 -16h79v-184h-119q-58 0 -111 24 q-92 43 -122 84l-87 120q-19 -46 -35 -73q-85 -155 -283 -155z" />
<glyph unicode="&#x6af;" horiz-adv-x="1649" arabic-form="isolated" d="M117 0zM1650 1685l-777 -354v150l777 354v-150zM693 88q166 0 340 80q141 65 174 120q14 26 14 72q0 69 -48 135l-279 380q-45 61 -45 142q0 35 9 68q31 119 121 161l671 310v-186l-536 -250q-64 -30 -83 -70q-5 -11 -5 -36q0 -32 28 -69l247 -330q92 -123 92 -246 q0 -113 -56 -214q-47 -86 -286 -171q-204 -73 -349 -73q-172 0 -288 38q-297 98 -297 365q0 138 57 230h165q-58 -94 -58 -230q0 -126 183 -192q93 -34 229 -34z" />
<glyph unicode="&#x6af;" horiz-adv-x="1649" arabic-form="final" d="M117 0zM1292 120q-89 -76 -241 -136q-184 -73 -349 -73q-173 0 -288 38q-297 98 -297 365q0 138 57 230h165q-58 -94 -58 -230q0 -126 183 -192q93 -34 229 -34q166 0 340 80q142 65 174 120q14 26 14 72q0 69 -48 135l-279 380q-45 61 -45 142q0 35 9 68q31 119 121 161 l671 310v-186l-536 -250q-64 -30 -83 -70q-5 -11 -5 -36q0 -32 28 -69l525 -705q19 -26 54 -40q38 -16 96 -16h79v-184h-119q-58 0 -110 24q-93 43 -123 84l-87 120q-23 -64 -77 -108zM1650 1685l-777 -354v150l777 354v-150z" />
<glyph unicode="&#x6af;" horiz-adv-x="877" arabic-form="initial" d="M0 0zM0 0zM279 0h-297v184h279q133 0 174 104q14 36 14 72q0 69 -49 135l-278 380q-46 61 -46 142q0 35 10 68q27 118 121 161l671 310v-186l-536 -250q-64 -30 -83 -70q-5 -11 -5 -36q0 -32 28 -69l247 -330q92 -123 92 -246q0 -113 -56 -214q-85 -155 -286 -155z M878 1685l-777 -354v150l777 354v-150z" />
<glyph unicode="&#x6af;" horiz-adv-x="1017" arabic-form="medial" d="M0 0zM0 0zM279 0h-297v184h279q133 0 174 104q14 36 14 72q0 69 -49 135l-278 380q-46 61 -46 142q0 35 10 68q27 118 121 161l671 310v-186l-536 -250q-64 -30 -83 -70q-5 -11 -5 -36q0 -32 28 -69l524 -705q20 -26 54 -40q39 -16 97 -16h79v-184h-119q-58 0 -111 24 q-92 43 -122 84l-87 120q-19 -46 -35 -73q-85 -155 -283 -155zM878 1685l-777 -354v150l777 354v-150z" />
<glyph unicode="&#x6ba;" horiz-adv-x="1353" arabic-form="isolated" d="M132 0zM1217 312q0 -173 -90 -351q-100 -197 -323 -265q-88 -27 -160 -27q-118 0 -216 37q-296 106 -296 462q0 235 43 316h165q-44 -144 -44 -316q0 -237 181 -289q83 -24 167 -24q69 0 133 20q173 53 242 275q30 98 30 194q0 184 -91 406h165q94 -156 94 -438z" />
<glyph unicode="&#x6ba;" horiz-adv-x="1403" arabic-form="final" d="M1123 581q40 -97 64 -193q20 -80 65 -140q48 -64 102 -64h67v-184h-117q-64 0 -94 48q-3 -109 -83 -256q-108 -199 -323 -265q-88 -27 -170 -27q-105 0 -206 37q-296 107 -296 462q0 175 43 316h165q-44 -137 -44 -316q0 -236 181 -289q81 -24 149 -24q80 0 151 20 q174 48 242 275q29 101 29 213q0 184 -90 387h165z" />
<glyph unicode="&#x6c6;" horiz-adv-x="890" arabic-form="isolated" d="M0 0zM383 812l-175 326h125l117 -195l117 195h125l-176 -326h-133zM445 452q-57 0 -97 -57q-21 -33 -21 -69q0 -51 46 -98q42 -44 215 -44q0 184 -78 243q-33 25 -65 25zM749 184q0 -308 -155 -468q-86 -88 -169 -130q-173 -86 -501 -86v184q323 0 443 76q151 95 207 243 q-106 0 -146 10q-136 33 -172 67q-104 98 -104 235q0 141 80 228q94 103 217 103q80 0 145 -51q117 -90 140 -233q15 -102 15 -178z" />
<glyph unicode="&#x6c6;" horiz-adv-x="952" arabic-form="final" d="M0 0zM383 812l-175 326h125l117 -195l117 195h125l-176 -326h-133zM588 184q0 76 -15 133q-21 80 -63 110q-54 41 -108 15q-60 -29 -72 -85q-15 -75 43 -129q42 -40 215 -44zM749 184h221v-184h-174l-63 1q-23 -156 -139 -285q-75 -83 -169 -130q-173 -86 -501 -86v184 q324 0 443 76q151 95 207 243q-106 3 -146 10q-126 24 -172 67q-95 89 -104 224q-2 31 7 88q25 155 183 230q53 25 112 24q78 -2 140 -51q120 -92 140 -233q11 -83 15 -178z" />
<glyph unicode="&#x649;" horiz-adv-x="513" arabic-form="initial" d="M269 86q-65 -86 -206 -86h-81v184h32q89 0 128 44q44 49 44 155v217h166v-217q0 -187 -83 -297z" />
<glyph unicode="&#x649;" horiz-adv-x="556" arabic-form="medial" d="M269 86q-69 -86 -206 -86h-81v184h32q89 0 128 44q44 49 44 155v217h166v-217q0 -106 44 -155q40 -44 129 -44h49v-184h-99q-135 0 -206 86z" />
<glyph unicode="&#x6cc;" horiz-adv-x="1442" arabic-form="isolated" d="M117 0zM1229 12q-91 -170 -400 -243q-159 -38 -267 -38q-116 0 -181 26q-264 104 -264 365q0 117 57 230h165q-59 -131 -58 -230q2 -147 149 -192q88 -26 142 -20q114 11 230 35q159 33 235 113q53 56 53 109q0 74 -114 103q-59 15 -162 61q-60 27 -112 78 q-58 57 -58 172q0 150 170 224q86 37 179.5 37t180.5 -42q126 -61 151 -234h-166q-11 61 -71 94q-36 20 -98 22q-70 2 -126 -37q-54 -38 -54 -72q0 -55 112 -97q224 -83 275 -147q69 -85 71 -174q1 -68 -39 -143z" />
<glyph unicode="&#x6cc;" horiz-adv-x="1536" arabic-form="final" d="M117 0zM990 -33q82 51 82 84q-1 43 -43 56q-26 8 -53 48q-40 59 -40 120q0 65 47 125q72 94 147 108q27 6 65 6q105 0 184 -134q115 -196 144 -196h31v-184h-31q-103 0 -204 172q-97 165 -120 165q-33 0 -46 -6q-41 -17 -41 -52q0 -48 59 -75q66 -30 68 -153 q3 -98 -99 -184q-115 -96 -311 -127q-80 -12 -174 -12q-169 0 -274 41q-264 103 -264 365q0 153 57 243h165q-58 -90 -58 -243q0 -114 149 -192q60 -31 221 -31q82 0 151 8q134 15 188 48z" />
<glyph unicode="&#x6cc;" horiz-adv-x="513" arabic-form="initial" d="M0 0zM269 86q-65 -86 -206 -86h-81v184h32q89 0 128 44q44 49 44 155v217h166v-217q0 -187 -83 -297zM314 -150h135v-150h-135v150zM89 -150h135v-150h-135v150z" />
<glyph unicode="&#x6cc;" horiz-adv-x="556" arabic-form="medial" d="M0 0zM269 86q-69 -86 -206 -86h-81v184h32q89 0 128 44q44 49 44 155v217h166v-217q0 -106 44 -155q40 -44 129 -44h49v-184h-99q-135 0 -206 86zM314 -150h135v-150h-135v150zM89 -150h135v-150h-135v150z" />
<glyph unicode="&#x621;" horiz-adv-x="866" arabic-form="isolated" d="M147 85zM147 85v176q42 6 117 31q61 20 108 53q-128 24 -174 100q-47 79 -47 163q0 65 18 140q28 118 120 181q89 61 177 61q99 0 180 -22v-185q-90 31 -153 29q-45 -1 -90 -27q-86 -48 -85 -160q0 -115 180 -165q51 -14 103 1q65 19 117 54v-185q-81 -60 -265 -140 q-208 -90 -306 -105z" />
<glyph unicode="&#x622;" horiz-adv-x="512" arabic-form="isolated" d="M0 0zM-67 1784l144 123q92 -83 153 -104q38 -13 86 -13q52 0 89 16q97 41 176 117v-125q-82 -64 -162 -93q-61 -22 -108 -22q-31 0 -99 17q-69 17 -131 87l-148 -128v125zM174 1556h165v-1556h-165v1556z" />
<glyph unicode="&#x622;" horiz-adv-x="561" arabic-form="final" d="M0 0zM174 371v1185h165v-1173q0 -106 44 -155q40 -44 129 -44h68v-184h-117q-139 0 -211 92q-78 101 -78 279zM-67 1784l144 123q92 -83 153 -104q38 -13 86 -13q52 0 89 16q97 41 176 117v-125q-82 -64 -162 -93q-61 -22 -108 -22q-31 0 -99 17q-69 17 -131 87 l-148 -128v125z" />
<glyph unicode="&#x623;" horiz-adv-x="512" arabic-form="isolated" d="M98 0zM98 1665zM98 1765l70 18q-40 20 -54 56q-14 37 -14 82q0 96 50 139q52 45 135 45q56 0 103 -33v-100q-45 33 -103 33q-59 0 -75 -18q-26 -32 -26 -58q0 -77 85 -104q29 -10 137 19v-102l-308 -77v100zM174 1556h165v-1556h-165v1556z" />
<glyph unicode="&#x623;" horiz-adv-x="561" arabic-form="final" d="M98 0zM174 371v1185h165v-1173q0 -106 44 -155q40 -44 129 -44h68v-184h-117q-139 0 -211 92q-78 101 -78 279zM98 1665zM98 1765l70 18q-40 20 -54 56q-14 37 -14 82q0 96 50 139q52 45 135 45q56 0 103 -33v-100q-45 33 -103 33q-59 0 -75 -18q-26 -32 -26 -58 q0 -77 85 -104q29 -10 137 19v-102l-308 -77v100z" />
<glyph unicode="&#x624;" horiz-adv-x="890" arabic-form="isolated" d="M0 0zM246 765zM246 865l70 18q-40 20 -54 56q-14 37 -14 82q0 96 50 139q52 45 135 45q56 0 103 -33v-100q-45 33 -103 33q-59 0 -75 -18q-26 -32 -26 -58q0 -77 85 -104q29 -10 137 19v-102l-308 -77v100zM445 452q-57 0 -97 -57q-21 -33 -21 -69q0 -51 46 -98 q42 -44 215 -44q0 184 -78 243q-33 25 -65 25zM749 184q0 -308 -155 -468q-86 -88 -169 -130q-173 -86 -501 -86v184q323 0 443 76q151 95 207 243q-106 0 -146 10q-136 33 -172 67q-104 98 -104 235q0 141 80 228q94 103 217 103q80 0 145 -51q117 -90 140 -233 q15 -102 15 -178z" />
<glyph unicode="&#x624;" horiz-adv-x="952" arabic-form="final" d="M0 0zM588 184q0 76 -15 133q-21 80 -63 110q-54 41 -108 15q-60 -29 -72 -85q-15 -75 43 -129q42 -40 215 -44zM749 184h221v-184h-174l-63 1q-23 -156 -139 -285q-75 -83 -169 -130q-173 -86 -501 -86v184q324 0 443 76q151 95 207 243q-106 3 -146 10q-126 24 -172 67 q-95 89 -104 224q-2 31 7 88q25 155 183 230q53 25 112 24q78 -2 140 -51q120 -92 140 -233q11 -83 15 -178zM246 765zM246 865l70 18q-40 20 -54 56q-14 37 -14 82q0 96 50 139q52 45 135 45q56 0 103 -33v-100q-45 33 -103 33q-59 0 -75 -18q-26 -32 -26 -58 q0 -77 85 -104q29 -10 137 19v-102l-308 -77v100z" />
<glyph unicode="&#x625;" horiz-adv-x="512" arabic-form="isolated" d="M98 0zM98 -60zM98 -400l70 18q-40 20 -54 56q-14 37 -14 82q0 96 50 139q52 45 135 45q56 0 103 -33v-100q-45 33 -103 33q-59 0 -75 -18q-26 -32 -26 -58q0 -77 85 -104q29 -10 137 19v-102l-308 -77v100zM174 1556h165v-1556h-165v1556z" />
<glyph unicode="&#x625;" horiz-adv-x="561" arabic-form="final" d="M98 0zM174 371v1185h165v-1173q0 -106 44 -155q40 -44 129 -44h68v-184h-117q-139 0 -211 92q-78 101 -78 279zM98 -60zM98 -400l70 18q-40 20 -54 56q-14 37 -14 82q0 96 50 139q52 45 135 45q56 0 103 -33v-100q-45 33 -103 33q-59 0 -75 -18q-26 -32 -26 -58 q0 -77 85 -104q29 -10 137 19v-102l-308 -77v100z" />
<glyph unicode="&#x626;" horiz-adv-x="1442" arabic-form="isolated" d="M117 0zM291 765zM291 865l70 18q-40 20 -54 56q-14 37 -14 82q0 96 50 139q52 45 135 45q56 0 103 -33v-100q-45 33 -103 33q-59 0 -75 -18q-26 -32 -26 -58q0 -77 85 -104q29 -10 137 19v-102l-308 -77v100zM1229 12q-91 -170 -400 -243q-159 -38 -267 -38 q-116 0 -181 26q-264 104 -264 365q0 117 57 230h165q-59 -131 -58 -230q2 -147 149 -192q88 -26 142 -20q114 11 230 35q159 33 235 113q53 56 53 109q0 74 -114 103q-59 15 -162 61q-60 27 -112 78q-58 57 -58 172q0 150 170 224q86 37 179.5 37t180.5 -42 q126 -61 151 -234h-166q-11 61 -71 94q-36 20 -98 22q-70 2 -126 -37q-54 -38 -54 -72q0 -55 112 -97q224 -83 275 -147q69 -85 71 -174q1 -68 -39 -143z" />
<glyph unicode="&#x626;" horiz-adv-x="1536" arabic-form="final" d="M117 0zM990 -33q82 51 82 84q-1 43 -43 56q-26 8 -53 48q-40 59 -40 120q0 65 47 125q72 94 147 108q27 6 65 6q105 0 184 -134q115 -196 144 -196h31v-184h-31q-103 0 -204 172q-97 165 -120 165q-33 0 -46 -6q-41 -17 -41 -52q0 -48 59 -75q66 -30 68 -153 q3 -98 -99 -184q-115 -96 -311 -127q-80 -12 -174 -12q-169 0 -274 41q-264 103 -264 365q0 153 57 243h165q-58 -90 -58 -243q0 -114 149 -192q60 -31 221 -31q82 0 151 8q134 15 188 48zM381 515zM381 615l70 18q-40 20 -54 56q-14 37 -14 82q0 96 50 139q52 45 135 45 q56 0 103 -33v-100q-45 33 -103 33q-59 0 -75 -18q-26 -32 -26 -58q0 -77 85 -104q29 -10 137 19v-102l-308 -77v100z" />
<glyph unicode="&#x626;" horiz-adv-x="513" arabic-form="initial" d="M0 0zM269 86q-65 -86 -206 -86h-81v184h32q89 0 128 44q44 49 44 155v217h166v-217q0 -187 -83 -297zM110 815zM110 915l70 18q-40 20 -54 56q-14 37 -14 82q0 96 50 139q52 45 135 45q56 0 103 -33v-100q-45 33 -103 33q-59 0 -75 -18q-26 -32 -26 -58q0 -77 85 -104 q29 -10 137 19v-102l-308 -77v100z" />
<glyph unicode="&#x626;" horiz-adv-x="556" arabic-form="medial" d="M0 0zM269 86q-69 -86 -206 -86h-81v184h32q89 0 128 44q44 49 44 155v217h166v-217q0 -106 44 -155q40 -44 129 -44h49v-184h-99q-135 0 -206 86zM110 815zM110 915l70 18q-40 20 -54 56q-14 37 -14 82q0 96 50 139q52 45 135 45q56 0 103 -33v-100q-45 33 -103 33 q-59 0 -75 -18q-26 -32 -26 -58q0 -77 85 -104q29 -10 137 19v-102l-308 -77v100z" />
<glyph unicode="&#x627;" horiz-adv-x="512" arabic-form="isolated" d="M174 0zM174 1556h165v-1556h-165v1556z" />
<glyph unicode="&#x627;" horiz-adv-x="561" arabic-form="final" d="M174 371v1185h165v-1173q0 -106 44 -155q40 -44 129 -44h68v-184h-117q-139 0 -211 92q-78 101 -78 279z" />
<glyph unicode="&#x628;" horiz-adv-x="1735" arabic-form="isolated" d="M117 0zM742 -200h135v-150h-135v150zM1580 669q14 -90 14 -160q0 -135 -68 -236q-116 -171 -401 -235q-257 -58 -423 -58q-172 0 -288 38q-297 97 -297 365q0 138 57 230h165q-58 -94 -58 -230q0 -125 183 -192q93 -34 229 -34q167 0 405 57q230 54 290 167q49 93 49 168 q0 59 -22 120h165z" />
<glyph unicode="&#x628;" horiz-adv-x="1809" arabic-form="final" d="M117 0zM1598 504q0 -208 62 -267q57 -53 114 -53h54v-184h-92q-104 0 -168 73q-72 83 -94 149q-139 -131 -349 -184q-233 -58 -423 -58q-176 0 -288 38q-296 101 -297 365q-1 138 57 230h165q-58 -94 -58 -230q0 -125 183 -192q93 -34 229 -34q234 2 405 57 q179 58 290 167q53 52 53 171q0 62 -26 117h165q18 -75 18 -165zM742 -200h135v-150h-135v150z" />
<glyph unicode="&#x628;" horiz-adv-x="513" arabic-form="initial" d="M0 0zM0 0zM269 86q-65 -86 -206 -86h-81v184h32q89 0 128 44q44 49 44 155v217h166v-217q0 -187 -83 -297zM202 -150h135v-150h-135v150z" />
<glyph unicode="&#x628;" horiz-adv-x="556" arabic-form="medial" d="M0 0zM0 0zM269 86q-69 -86 -206 -86h-81v184h32q89 0 128 44q44 49 44 155v217h166v-217q0 -106 44 -155q40 -44 129 -44h49v-184h-99q-135 0 -206 86zM202 -150h135v-150h-135v150z" />
<glyph unicode="&#x629;" horiz-adv-x="965" arabic-form="isolated" d="M125 0zM450 1050h135v-150h-135v150zM225 1050h135v-150h-135v150zM399 554q-60 0 -89 -87q-24 -69 -23 -192q1 -82 51 -126q51 -44 102 -44q82 0 166 57q67 46 67 131q0 77 -59 142q-111 120 -215 119zM366 734q178 0 342 -160q127 -124 127 -272q-1 -200 -133 -275 q-148 -85 -267 -85q-87 0 -160 35q-150 74 -150 313q0 181 33 259q76 185 208 185z" />
<glyph unicode="&#x629;" horiz-adv-x="988" arabic-form="final" d="M130 0zM608 282q-13 42 -25 91q-11 50 -22 151q-108 -12 -182 -79q-100 -89 -98 -151q1 -41 82 -66t245 54zM548 668q-4 39 -6 82h165q1 -168 34 -342q19 -101 69 -180q28 -44 129 -44h67v-184h-117q-81 0 -147 51q-40 31 -74 90q-124 -73 -265 -73q-50 0 -102 15 q-171 48 -171 202q0 173 184 300q98 68 234 83zM540 1050h135v-150h-135v150zM315 1050h135v-150h-135v150z" />
<glyph unicode="&#x62a;" horiz-adv-x="1735" arabic-form="isolated" d="M117 0zM855 800h135v-150h-135v150zM630 800h135v-150h-135v150zM1580 669q14 -90 14 -160q0 -135 -68 -236q-116 -171 -401 -235q-257 -58 -423 -58q-172 0 -288 38q-297 97 -297 365q0 138 57 230h165q-58 -94 -58 -230q0 -125 183 -192q93 -34 229 -34q167 0 405 57 q230 54 290 167q49 93 49 168q0 59 -22 120h165z" />
<glyph unicode="&#x62a;" horiz-adv-x="1809" arabic-form="final" d="M117 0zM1598 504q0 -208 62 -267q57 -53 114 -53h54v-184h-92q-104 0 -168 73q-72 83 -94 149q-139 -131 -349 -184q-233 -58 -423 -58q-176 0 -288 38q-296 101 -297 365q-1 138 57 230h165q-58 -94 -58 -230q0 -125 183 -192q93 -34 229 -34q234 2 405 57 q179 58 290 167q53 52 53 171q0 62 -26 117h165q18 -75 18 -165zM855 800h135v-150h-135v150zM630 800h135v-150h-135v150z" />
<glyph unicode="&#x62a;" horiz-adv-x="513" arabic-form="initial" d="M0 0zM0 0zM269 86q-65 -86 -206 -86h-81v184h32q89 0 128 44q44 49 44 155v217h166v-217q0 -187 -83 -297zM314 1000h135v-150h-135v150zM89 1000h135v-150h-135v150z" />
<glyph unicode="&#x62a;" horiz-adv-x="556" arabic-form="medial" d="M0 0zM0 0zM269 86q-69 -86 -206 -86h-81v184h32q89 0 128 44q44 49 44 155v217h166v-217q0 -106 44 -155q40 -44 129 -44h49v-184h-99q-135 0 -206 86zM314 1000h135v-150h-135v150zM89 1000h135v-150h-135v150z" />
<glyph unicode="&#x62b;" horiz-adv-x="1735" arabic-form="isolated" d="M117 0zM742 1050h136v-150h-136v150zM855 800h135v-150h-135v150zM630 800h135v-150h-135v150zM1580 669q14 -90 14 -160q0 -135 -68 -236q-116 -171 -401 -235q-257 -58 -423 -58q-172 0 -288 38q-297 97 -297 365q0 138 57 230h165q-58 -94 -58 -230q0 -125 183 -192 q93 -34 229 -34q167 0 405 57q230 54 290 167q49 93 49 168q0 59 -22 120h165z" />
<glyph unicode="&#x62b;" horiz-adv-x="1809" arabic-form="final" d="M117 0zM1598 504q0 -208 62 -267q57 -53 114 -53h54v-184h-92q-104 0 -168 73q-72 83 -94 149q-139 -131 -349 -184q-233 -58 -423 -58q-176 0 -288 38q-296 101 -297 365q-1 138 57 230h165q-58 -94 -58 -230q0 -125 183 -192q93 -34 229 -34q234 2 405 57 q179 58 290 167q53 52 53 171q0 62 -26 117h165q18 -75 18 -165zM742 1050h136v-150h-136v150zM855 800h135v-150h-135v150zM630 800h135v-150h-135v150z" />
<glyph unicode="&#x62b;" horiz-adv-x="513" arabic-form="initial" d="M0 0zM0 0zM269 86q-65 -86 -206 -86h-81v184h32q89 0 128 44q44 49 44 155v217h166v-217q0 -187 -83 -297zM201 1250h136v-150h-136v150zM314 1000h135v-150h-135v150zM89 1000h135v-150h-135v150z" />
<glyph unicode="&#x62b;" horiz-adv-x="556" arabic-form="medial" d="M0 0zM0 0zM269 86q-69 -86 -206 -86h-81v184h32q89 0 128 44q44 49 44 155v217h166v-217q0 -106 44 -155q40 -44 129 -44h49v-184h-99q-135 0 -206 86zM201 1250h136v-150h-136v150zM314 1000h135v-150h-135v150zM89 1000h135v-150h-135v150z" />
<glyph unicode="&#x62c;" horiz-adv-x="1189" arabic-form="isolated" d="M141 0zM698 175h135v-150h-135v150zM141 807q249 63 424 63q263 0 439 -54v-154q-264 0 -458 -167q-201 -174 -201 -435q0 -135 66 -231q115 -164 413 -164q173 0 364 118v-184q-135 -99 -360 -99q-376 0 -528 194q-118 150 -118 374q0 258 191 481q86 101 209 153 q-91 0 -234 -19q-113 -15 -207 -60v184z" />
<glyph unicode="&#x62c;" horiz-adv-x="1189" arabic-form="final" d="M141 0zM1172 184h36v-184h-44q-116 0 -227 150q-74 100 -129 256q-5 15 -71 193q-103 -24 -191 -104q-201 -183 -201 -435q0 -137 66 -231q116 -164 413 -164q173 0 364 118v-184q-135 -99 -360 -99q-376 0 -528 194q-118 150 -118 374q0 258 191 481q86 101 209 153h-22 q-86 0 -212 -19q-121 -19 -207 -60v184q245 63 419 63q264 0 444 -54v-154q-98 0 -126 -13l26 -91q46 -160 111 -255q81 -119 157 -119zM630 100h135v-150h-135v150z" />
<glyph unicode="&#x62c;" horiz-adv-x="1139" arabic-form="initial" d="M0 0zM766 541q-75 23 -168 46q-76 19 -238 35q-74 7 -219 1v184q65 7 133 8q145 0 300 -35q232 -52 430 -150v-154q-68 -24 -147 -76q-150 -98 -216 -164q-131 -129 -198 -156q-199 -80 -346 -80h-115v184h90q204 0 320 72q94 58 198 164q85 86 176 121zM472 -150h135 v-150h-135v150z" />
<glyph unicode="&#x62c;" horiz-adv-x="1189" arabic-form="medial" d="M0 0zM574 780q232 -52 430 -150v-154q-58 -20 -124 -61q45 -78 72 -112q94 -119 196 -119h60v-184h-78q-188 0 -301 168q-36 54 -89 151q-62 -46 -99 -83q-131 -129 -198 -156q-199 -80 -346 -80h-115v184h90q204 0 320 72q94 58 198 164q85 86 176 121q-75 23 -168 46 q-76 19 -238 35q-74 7 -219 1v184q65 7 133 8q145 0 300 -35zM472 -150h135v-150h-135v150z" />
<glyph unicode="&#x62d;" horiz-adv-x="1189" arabic-form="isolated" d="M141 0zM141 807q249 63 424 63q263 0 439 -54v-154q-264 0 -458 -167q-201 -174 -201 -435q0 -135 66 -231q115 -164 413 -164q173 0 364 118v-184q-135 -99 -360 -99q-376 0 -528 194q-118 150 -118 374q0 258 191 481q86 101 209 153q-91 0 -234 -19q-113 -15 -207 -60 v184z" />
<glyph unicode="&#x62d;" horiz-adv-x="1189" arabic-form="final" d="M1172 184h36v-184h-44q-116 0 -227 150q-74 100 -129 256q-5 15 -71 193q-103 -24 -191 -104q-201 -183 -201 -435q0 -137 66 -231q116 -164 413 -164q173 0 364 118v-184q-135 -99 -360 -99q-376 0 -528 194q-118 150 -118 374q0 258 191 481q86 101 209 153h-22 q-86 0 -212 -19q-121 -19 -207 -60v184q245 63 419 63q264 0 444 -54v-154q-98 0 -126 -13l26 -91q46 -160 111 -255q81 -119 157 -119z" />
<glyph unicode="&#x62d;" horiz-adv-x="1139" arabic-form="initial" d="M766 541q-75 23 -168 46q-76 19 -238 35q-74 7 -219 1v184q65 7 133 8q145 0 300 -35q232 -52 430 -150v-154q-68 -24 -147 -76q-150 -98 -216 -164q-131 -129 -198 -156q-199 -80 -346 -80h-115v184h90q204 0 320 72q94 58 198 164q85 86 176 121z" />
<glyph unicode="&#x62d;" horiz-adv-x="1189" arabic-form="medial" d="M574 780q232 -52 430 -150v-154q-58 -20 -124 -61q45 -78 72 -112q94 -119 196 -119h60v-184h-78q-188 0 -301 168q-36 54 -89 151q-62 -46 -99 -83q-131 -129 -198 -156q-199 -80 -346 -80h-115v184h90q204 0 320 72q94 58 198 164q85 86 176 121q-75 23 -168 46 q-76 19 -238 35q-74 7 -219 1v184q65 7 133 8q145 0 300 -35z" />
<glyph unicode="&#x62e;" horiz-adv-x="1189" arabic-form="isolated" d="M141 0zM518 1200h135v-150h-135v150zM141 807q249 63 424 63q263 0 439 -54v-154q-264 0 -458 -167q-201 -174 -201 -435q0 -135 66 -231q115 -164 413 -164q173 0 364 118v-184q-135 -99 -360 -99q-376 0 -528 194q-118 150 -118 374q0 258 191 481q86 101 209 153 q-91 0 -234 -19q-113 -15 -207 -60v184z" />
<glyph unicode="&#x62e;" horiz-adv-x="1189" arabic-form="final" d="M141 0zM1172 184h36v-184h-44q-116 0 -227 150q-74 100 -129 256q-5 15 -71 193q-103 -24 -191 -104q-201 -183 -201 -435q0 -137 66 -231q116 -164 413 -164q173 0 364 118v-184q-135 -99 -360 -99q-376 0 -528 194q-118 150 -118 374q0 258 191 481q86 101 209 153h-22 q-86 0 -212 -19q-121 -19 -207 -60v184q245 63 419 63q264 0 444 -54v-154q-98 0 -126 -13l26 -91q46 -160 111 -255q81 -119 157 -119zM518 1200h135v-150h-135v150z" />
<glyph unicode="&#x62e;" horiz-adv-x="1139" arabic-form="initial" d="M0 0zM766 541q-75 23 -168 46q-76 19 -238 35q-74 7 -219 1v184q65 7 133 8q145 0 300 -35q232 -52 430 -150v-154q-68 -24 -147 -76q-150 -98 -216 -164q-131 -129 -198 -156q-199 -80 -346 -80h-115v184h90q204 0 320 72q94 58 198 164q85 86 176 121zM472 1100h135 v-150h-135v150z" />
<glyph unicode="&#x62e;" horiz-adv-x="1189" arabic-form="medial" d="M0 0zM574 780q232 -52 430 -150v-154q-58 -20 -124 -61q45 -78 72 -112q94 -119 196 -119h60v-184h-78q-188 0 -301 168q-36 54 -89 151q-62 -46 -99 -83q-131 -129 -198 -156q-199 -80 -346 -80h-115v184h90q204 0 320 72q94 58 198 164q85 86 176 121q-75 23 -168 46 q-76 19 -238 35q-74 7 -219 1v184q65 7 133 8q145 0 300 -35zM472 1100h135v-150h-135v150z" />
<glyph unicode="&#x62f;" horiz-adv-x="820" arabic-form="isolated" d="M112 0zM352 151q155 49 186 161q7 27 7 69q0 78 -54 194q-59 129 -215 275h205q101 -91 161 -215q74 -152 74 -257q0 -99 -29 -174q-72 -194 -308 -235q-41 -7 -82 -7q-92 0 -185 38v184q104 -42 180 -42q29 0 60 9z" />
<glyph unicode="&#x62f;" horiz-adv-x="967" arabic-form="final" d="M491 575q-51 122 -215 275h205q87 -78 161 -215q73 -134 73 -251q0 -73 74 -156q40 -44 129 -44h68v-184h-118q-132 0 -219 130q-84 -128 -270 -161q-41 -7 -82 -7q-92 0 -185 38v184q104 -42 180 -42q29 0 60 9q155 49 186 161q7 27 7 69q0 68 -54 194z" />
<glyph unicode="&#x630;" horiz-adv-x="820" arabic-form="isolated" d="M112 0zM292 1200h135v-150h-135v150zM352 151q155 49 186 161q7 27 7 69q0 78 -54 194q-59 129 -215 275h205q101 -91 161 -215q74 -152 74 -257q0 -99 -29 -174q-72 -194 -308 -235q-41 -7 -82 -7q-92 0 -185 38v184q104 -42 180 -42q29 0 60 9z" />
<glyph unicode="&#x630;" horiz-adv-x="967" arabic-form="final" d="M112 0zM491 575q-51 122 -215 275h205q87 -78 161 -215q73 -134 73 -251q0 -73 74 -156q40 -44 129 -44h68v-184h-118q-132 0 -219 130q-84 -128 -270 -161q-41 -7 -82 -7q-92 0 -185 38v184q104 -42 180 -42q29 0 60 9q155 49 186 161q7 27 7 69q0 68 -54 194zM292 1200 h135v-150h-135v150z" />
<glyph unicode="&#x631;" horiz-adv-x="890" arabic-form="isolated" d="M0 0zM608 158q8 58 8 130q0 126 -47 262h165q45 -118 45 -250q0 -82 -7 -144q-41 -350 -303 -505q-256 -151 -545 -151v184q273 0 456 128q196 138 228 346z" />
<glyph unicode="&#x631;" horiz-adv-x="1017" arabic-form="final" d="M569 550h165q27 -112 30 -142q9 -103 75 -180q38 -44 129 -44h67v-184h-117q-117 0 -162 62q-61 -278 -287 -411q-256 -151 -545 -151v184q273 0 456 128q196 138 228 346q8 58 8 130q0 126 -47 262z" />
<glyph unicode="&#x632;" horiz-adv-x="890" arabic-form="isolated" d="M0 0zM562 950h135v-150h-135v150zM608 158q8 58 8 130q0 126 -47 262h165q45 -118 45 -250q0 -82 -7 -144q-41 -350 -303 -505q-256 -151 -545 -151v184q273 0 456 128q196 138 228 346z" />
<glyph unicode="&#x632;" horiz-adv-x="1017" arabic-form="final" d="M0 0zM569 550h165q27 -112 30 -142q9 -103 75 -180q38 -44 129 -44h67v-184h-117q-117 0 -162 62q-61 -278 -287 -411q-256 -151 -545 -151v184q273 0 456 128q196 138 228 346q8 58 8 130q0 126 -47 262zM562 950h135v-150h-135v150z" />
<glyph unicode="&#x633;" horiz-adv-x="2250" arabic-form="isolated" d="M117 0zM1148 44q-21 -179 -97 -286q-119 -170 -293 -232q-72 -26 -180 -26q-115 1 -214 29q-247 71 -247 399q0 246 95 426h165q-97 -206 -96 -426q1 -179 133 -217q86 -24 158 -24q89 0 174 37q109 48 194 206q57 108 56 250q-1 125 -15 186l-58 234h166l32 -156 q15 -74 40 -134q53 -129 157 -129q73 0 113 122q33 103 33 297h166q0 -205 17 -255q58 -169 157 -169q127 0 127 280v294h166v-342q0 -199 -83 -312q-67 -92 -159 -116q-33 -9 -62 -9q-66 0 -109 25q-124 70 -140 193q-44 -159 -129 -189q-45 -15 -108 -18q-119 -6 -159 62z " />
<glyph unicode="&#x633;" horiz-adv-x="2349" arabic-form="final" d="M1318 181q70 -2 113 122q33 95 33 297h166q0 -205 17 -255q58 -169 157 -169q127 0 127 280v294h166v-342q0 -97 75 -180q39 -44 128 -44h68v-184h-117q-131 0 -237 96q-61 -91 -159 -116q-33 -9 -62 -9q-66 0 -109 25q-124 70 -140 193q-44 -159 -129 -189 q-58 -20 -108 -18q-123 2 -159 62q-21 -179 -97 -286q-119 -170 -293 -232q-72 -26 -180 -26q-115 1 -214 29q-247 71 -247 399q0 246 95 426h165q-97 -206 -96 -426q1 -179 133 -217q86 -24 158 -24q89 0 174 37q109 48 194 206q57 108 56 250q-1 125 -15 186l-58 234h166 l32 -156q15 -74 40 -134q52 -126 157 -129z" />
<glyph unicode="&#x633;" arabic-form="initial" d="M346 138q-39 -59 -90 -92q-68 -46 -157 -46h-117v184h68q89 0 128 44q72 80 72 180v192h166v-156q0 -64 39 -164q39 -99 133 -99q98 0 137 122q34 103 34 297h165q0 -205 17 -255q58 -170 157 -169q128 2 128 280v294h165v-342q0 -199 -82 -312q-68 -92 -160 -116 q-33 -9 -65 -9q-56 0 -106 25q-123 61 -139 193q-43 -156 -130 -189q-61 -24 -119 -24q-89 0 -154 49q-54 40 -90 113z" />
<glyph unicode="&#x633;" horiz-adv-x="1644" arabic-form="medial" d="M1149 -20q-33 -9 -65 -9q-56 0 -106 25q-123 61 -139 193q-43 -156 -130 -189q-61 -24 -119 -24q-89 0 -154 49q-54 40 -90 113q-39 -59 -90 -92q-68 -46 -157 -46h-117v184h68q89 0 128 44q72 80 72 180v192h166v-156q0 -64 39 -164q39 -99 133 -99q98 0 137 122 q34 103 34 297h165q0 -205 17 -255q58 -170 157 -169q128 2 128 280v294h165v-342q0 -97 75 -180q40 -44 129 -44h67v-184h-117q-130 0 -236 96q-62 -90 -160 -116z" />
<glyph unicode="&#x634;" horiz-adv-x="2250" arabic-form="isolated" d="M117 0zM1237 1200h136v-150h-136v150zM1350 950h135v-150h-135v150zM1125 950h135v-150h-135v150zM1148 44q-21 -179 -97 -286q-119 -170 -293 -232q-72 -26 -180 -26q-115 1 -214 29q-247 71 -247 399q0 246 95 426h165q-97 -206 -96 -426q1 -179 133 -217 q86 -24 158 -24q89 0 174 37q109 48 194 206q57 108 56 250q-1 125 -15 186l-58 234h166l32 -156q15 -74 40 -134q53 -129 157 -129q73 0 113 122q33 103 33 297h166q0 -205 17 -255q58 -169 157 -169q127 0 127 280v294h166v-342q0 -199 -83 -312q-67 -92 -159 -116 q-33 -9 -62 -9q-66 0 -109 25q-124 70 -140 193q-44 -159 -129 -189q-45 -15 -108 -18q-119 -6 -159 62z" />
<glyph unicode="&#x634;" horiz-adv-x="2349" arabic-form="final" d="M117 0zM1318 181q70 -2 113 122q33 95 33 297h166q0 -205 17 -255q58 -169 157 -169q127 0 127 280v294h166v-342q0 -97 75 -180q39 -44 128 -44h68v-184h-117q-131 0 -237 96q-61 -91 -159 -116q-33 -9 -62 -9q-66 0 -109 25q-124 70 -140 193q-44 -159 -129 -189 q-58 -20 -108 -18q-123 2 -159 62q-21 -179 -97 -286q-119 -170 -293 -232q-72 -26 -180 -26q-115 1 -214 29q-247 71 -247 399q0 246 95 426h165q-97 -206 -96 -426q1 -179 133 -217q86 -24 158 -24q89 0 174 37q109 48 194 206q57 108 56 250q-1 125 -15 186l-58 234h166 l32 -156q15 -74 40 -134q52 -126 157 -129zM1237 1200h136v-150h-136v150zM1350 950h135v-150h-135v150zM1125 950h135v-150h-135v150z" />
<glyph unicode="&#x634;" arabic-form="initial" d="M0 0zM346 138q-39 -59 -90 -92q-68 -46 -157 -46h-117v184h68q89 0 128 44q72 80 72 180v192h166v-156q0 -64 39 -164q39 -99 133 -99q98 0 137 122q34 103 34 297h165q0 -205 17 -255q58 -170 157 -169q128 2 128 280v294h165v-342q0 -199 -82 -312q-68 -92 -160 -116 q-33 -9 -65 -9q-56 0 -106 25q-123 61 -139 193q-43 -156 -130 -189q-61 -24 -119 -24q-89 0 -154 49q-54 40 -90 113zM697 1200h136v-150h-136v150zM810 950h135v-150h-135v150zM585 950h135v-150h-135v150z" />
<glyph unicode="&#x634;" horiz-adv-x="1644" arabic-form="medial" d="M0 0zM1149 -20q-33 -9 -65 -9q-56 0 -106 25q-123 61 -139 193q-43 -156 -130 -189q-61 -24 -119 -24q-89 0 -154 49q-54 40 -90 113q-39 -59 -90 -92q-68 -46 -157 -46h-117v184h68q89 0 128 44q72 80 72 180v192h166v-156q0 -64 39 -164q39 -99 133 -99q98 0 137 122 q34 103 34 297h165q0 -205 17 -255q58 -170 157 -169q128 2 128 280v294h165v-342q0 -97 75 -180q40 -44 129 -44h67v-184h-117q-130 0 -236 96q-62 -90 -160 -116zM697 1200h136v-150h-136v150zM810 950h135v-150h-135v150zM585 950h135v-150h-135v150z" />
<glyph unicode="&#x635;" horiz-adv-x="2228" arabic-form="isolated" d="M117 0zM1051 -242q-79 -155 -293 -232q-72 -26 -180 -26q-115 1 -214 29q-247 71 -247 399q0 246 95 426h165q-97 -206 -96 -426q1 -179 133 -217q86 -24 158 -24q92 0 174 37q146 68 185 206q29 108 29 235q0 147 -35 285h154q-1 -15 12 -70q9 -40 45 -90 q103 146 214 254q113 110 230 164q71 34 144 33q112 -2 199 -39q168 -71 168 -304q0 -169 -166 -278q-182 -120 -437 -120h-249q-34 0 -81 30q-40 26 -40 42q0 -186 -67 -314zM1724 567q-69 0 -182 -81q-152 -108 -282 -302h168q214 0 330 63q168 91 167 161 q-2 135 -125 154q-33 5 -76 5z" />
<glyph unicode="&#x635;" horiz-adv-x="2258" arabic-form="final" d="M1488 0h-249q-34 0 -81 30q-40 26 -40 42q0 -186 -67 -314q-79 -155 -293 -232q-72 -26 -180 -26q-115 1 -214 29q-247 71 -247 399q0 246 95 426h165q-97 -206 -96 -426q1 -179 133 -217q86 -24 158 -24q92 0 174 37q146 68 185 206q29 108 29 235q0 147 -35 285h154 q-1 -15 12 -70q9 -40 45 -90q103 146 214 254q97 94 230 164q64 34 144 33q112 -2 199 -39q168 -71 168 -304q0 -77 -38 -147q13 -12 27 -23q55 -44 129 -44h67v-184h-117q-118 0 -211 92l-25 26q-183 -118 -435 -118zM1724 567q-69 0 -182 -81q-152 -108 -282 -302h168 q214 0 330 63q168 91 167 161q-2 135 -125 154q-33 5 -76 5z" />
<glyph unicode="&#x635;" horiz-adv-x="1565" arabic-form="initial" d="M878 486q-151 -108 -281 -302h168q214 0 329 63q168 91 168 161q0 135 -125 154q-33 5 -77 5q-68 0 -182 -81zM824 0h-248q-67 0 -137 42q-58 35 -93 96q-92 -138 -247 -138h-117v184h68q89 0 128 44q72 80 72 180v114h166v-78q0 -24 8 -64t48 -90q91 134 177 218 q137 137 267 200q68 33 144 33q104 0 200 -39q167 -68 167 -304q0 -169 -165 -278q-182 -120 -438 -120z" />
<glyph unicode="&#x635;" horiz-adv-x="1598" arabic-form="medial" d="M828 0h-252q-67 0 -137 42q-58 35 -93 96q-92 -138 -247 -138h-117v184h68q89 0 128 44q72 80 72 180v114h166v-78q0 -24 8 -64t48 -90q91 134 177 218q137 137 267 200q68 33 144 33q102 0 200 -39q171 -68 171 -304q0 -75 -38 -147q13 -12 27 -23q55 -44 129 -44h67 v-184h-117q-117 0 -210 92l-25 26q-184 -118 -436 -118zM878 486q-151 -108 -281 -302h168q214 0 329 63q168 91 168 161q0 135 -125 154q-33 5 -77 5q-68 0 -182 -81z" />
<glyph unicode="&#x636;" horiz-adv-x="2228" arabic-form="isolated" d="M117 0zM1148 950h135v-150h-135v150zM1051 -242q-79 -155 -293 -232q-72 -26 -180 -26q-115 1 -214 29q-247 71 -247 399q0 246 95 426h165q-97 -206 -96 -426q1 -179 133 -217q86 -24 158 -24q92 0 174 37q146 68 185 206q29 108 29 235q0 147 -35 285h154 q-1 -15 12 -70q9 -40 45 -90q103 146 214 254q113 110 230 164q71 34 144 33q112 -2 199 -39q168 -71 168 -304q0 -169 -166 -278q-182 -120 -437 -120h-249q-34 0 -81 30q-40 26 -40 42q0 -186 -67 -314zM1724 567q-69 0 -182 -81q-152 -108 -282 -302h168q214 0 330 63 q168 91 167 161q-2 135 -125 154q-33 5 -76 5z" />
<glyph unicode="&#x636;" horiz-adv-x="2258" arabic-form="final" d="M117 0zM1488 0h-249q-34 0 -81 30q-40 26 -40 42q0 -186 -67 -314q-79 -155 -293 -232q-72 -26 -180 -26q-115 1 -214 29q-247 71 -247 399q0 246 95 426h165q-97 -206 -96 -426q1 -179 133 -217q86 -24 158 -24q92 0 174 37q146 68 185 206q29 108 29 235q0 147 -35 285 h154q-1 -15 12 -70q9 -40 45 -90q103 146 214 254q97 94 230 164q64 34 144 33q112 -2 199 -39q168 -71 168 -304q0 -77 -38 -147q13 -12 27 -23q55 -44 129 -44h67v-184h-117q-118 0 -211 92l-25 26q-183 -118 -435 -118zM1724 567q-69 0 -182 -81q-152 -108 -282 -302h168 q214 0 330 63q168 91 167 161q-2 135 -125 154q-33 5 -76 5zM1148 950h135v-150h-135v150z" />
<glyph unicode="&#x636;" horiz-adv-x="1565" arabic-form="initial" d="M0 0zM878 486q-151 -108 -281 -302h168q214 0 329 63q168 91 168 161q0 135 -125 154q-33 5 -77 5q-68 0 -182 -81zM824 0h-248q-67 0 -137 42q-58 35 -93 96q-92 -138 -247 -138h-117v184h68q89 0 128 44q72 80 72 180v114h166v-78q0 -24 8 -64t48 -90q91 134 177 218 q137 137 267 200q68 33 144 33q104 0 200 -39q167 -68 167 -304q0 -169 -165 -278q-182 -120 -438 -120zM428 950h135v-150h-135v150z" />
<glyph unicode="&#x636;" horiz-adv-x="1598" arabic-form="medial" d="M0 0zM828 0h-252q-67 0 -137 42q-58 35 -93 96q-92 -138 -247 -138h-117v184h68q89 0 128 44q72 80 72 180v114h166v-78q0 -24 8 -64t48 -90q91 134 177 218q137 137 267 200q68 33 144 33q102 0 200 -39q171 -68 171 -304q0 -75 -38 -147q13 -12 27 -23q55 -44 129 -44 h67v-184h-117q-117 0 -210 92l-25 26q-184 -118 -436 -118zM878 486q-151 -108 -281 -302h168q214 0 329 63q168 91 168 161q0 135 -125 154q-33 5 -77 5q-68 0 -182 -81zM428 950h135v-150h-135v150z" />
<glyph unicode="&#x637;" horiz-adv-x="1704" arabic-form="isolated" d="M130 0zM750 184h168q213 0 329 63q169 93 168 161q-2 135 -125 154q-34 5 -77 5q-72 0 -182 -81q-159 -120 -281 -302zM977 0h-517h-330v184h330v1372h166v-1266q195 319 443 418q83 33 144 33q108 0 200 -39q167 -69 167 -304q0 -169 -165 -278q-182 -120 -438 -120z " />
<glyph unicode="&#x637;" horiz-adv-x="1749" arabic-form="final" d="M979 0h-519h-330v184h330v1372h166v-1266q195 319 443 418q83 33 144 33q105 0 200 -39q169 -69 169 -304q0 -77 -38 -147q13 -12 27 -23q55 -44 129 -44h68v-184h-117q-118 0 -211 92l-25 26q-184 -118 -436 -118zM750 184h168q213 0 329 63q169 93 168 161 q-2 135 -125 154q-34 5 -77 5q-72 0 -182 -81q-159 -120 -281 -302z" />
<glyph unicode="&#x637;" horiz-adv-x="1467" arabic-form="initial" d="M512 184h168q214 0 330 63q168 93 167 161q-2 135 -125 154q-33 5 -76 5q-72 0 -182 -81q-160 -120 -282 -302zM740 0h-518h-240v184h240v1372h166v-1266q195 319 444 418q82 33 144 33q105 0 199 -39q168 -69 168 -304q0 -169 -166 -278q-182 -120 -437 -120z" />
<glyph unicode="&#x637;" horiz-adv-x="1512" arabic-form="medial" d="M742 0h-520h-240v184h240v1372h166v-1266q195 319 444 418q82 33 144 33q105 0 199 -39q170 -69 170 -304q0 -77 -38 -147q12 -12 27 -23q55 -44 128 -44h68v-184h-117q-118 0 -211 92l-25 26q-183 -118 -435 -118zM512 184h168q214 0 330 63q168 93 167 161 q-2 135 -125 154q-33 5 -76 5q-72 0 -182 -81q-160 -120 -282 -302z" />
<glyph unicode="&#x638;" horiz-adv-x="1704" arabic-form="isolated" d="M130 0zM878 1000h135v-150h-135v150zM750 184h168q213 0 329 63q169 93 168 161q-2 135 -125 154q-34 5 -77 5q-72 0 -182 -81q-159 -120 -281 -302zM977 0h-517h-330v184h330v1372h166v-1266q195 319 443 418q83 33 144 33q108 0 200 -39q167 -69 167 -304 q0 -169 -165 -278q-182 -120 -438 -120z" />
<glyph unicode="&#x638;" horiz-adv-x="1749" arabic-form="final" d="M130 0zM979 0h-519h-330v184h330v1372h166v-1266q195 319 443 418q83 33 144 33q105 0 200 -39q169 -69 169 -304q0 -77 -38 -147q13 -12 27 -23q55 -44 129 -44h68v-184h-117q-118 0 -211 92l-25 26q-184 -118 -436 -118zM750 184h168q213 0 329 63q169 93 168 161 q-2 135 -125 154q-34 5 -77 5q-72 0 -182 -81q-159 -120 -281 -302zM878 1000h135v-150h-135v150z" />
<glyph unicode="&#x638;" horiz-adv-x="1467" arabic-form="initial" d="M0 0zM512 184h168q214 0 330 63q168 93 167 161q-2 135 -125 154q-33 5 -76 5q-72 0 -182 -81q-160 -120 -282 -302zM740 0h-518h-240v184h240v1372h166v-1266q195 319 444 418q82 33 144 33q105 0 199 -39q168 -69 168 -304q0 -169 -166 -278q-182 -120 -437 -120z M640 1000h135v-150h-135v150z" />
<glyph unicode="&#x638;" horiz-adv-x="1512" arabic-form="medial" d="M0 0zM742 0h-520h-240v184h240v1372h166v-1266q195 319 444 418q82 33 144 33q105 0 199 -39q170 -69 170 -304q0 -77 -38 -147q12 -12 27 -23q55 -44 128 -44h68v-184h-117q-118 0 -211 92l-25 26q-183 -118 -435 -118zM512 184h168q214 0 330 63q168 93 167 161 q-2 135 -125 154q-33 5 -76 5q-72 0 -182 -81q-160 -120 -282 -302zM640 1000h135v-150h-135v150z" />
<glyph unicode="&#x639;" horiz-adv-x="1099" arabic-form="isolated" d="M105 0zM305 -177q107 -158 412 -158q174 0 365 118v-184q-135 -99 -360 -99q-379 0 -528 188q-89 111 -89 312q0 177 79 278q101 131 171 156q-46 4 -89 34q-79 56 -79 186q0 208 184 335q111 77 338 77v-169q-175 0 -280 -65q-83 -52 -83 -156q0 -75 43 -100 q40 -24 82 -24q36 0 73 18q142 69 370 98v-184q-245 -26 -458 -175q-188 -131 -188 -316q0 -117 37 -170z" />
<glyph unicode="&#x639;" horiz-adv-x="981" arabic-form="final" d="M1082 -401q-137 -99 -368 -99q-379 0 -520 188q-89 122 -89 323t169 341q-55 50 -85.5 108t-30.5 100q0 110 112 174q87 48 194.5 48t192.5 -48q114 -64 114 -176q0 -91 -82 -158q-51 -43 -135 -75q61 -64 142.5 -102.5t158.5 -38.5h144v-184h-130q-239 0 -462 228 q-139 -129 -139 -236q0 -108 37 -169q96 -158 412 -158q174 0 365 118v-184zM435 445q122 56 122 104t-92.5 48t-92.5 -51q0 -36 63 -101z" />
<glyph unicode="&#x639;" horiz-adv-x="1099" arabic-form="initial" d="M54 184q145 0 327 93q-68 24 -115 83q-79 100 -79 240q0 264 184 389q112 77 338 77v-169q-196 0 -279.5 -68.5t-83.5 -196t55 -179.5q75 -70 138 -70q50 0 116 33l259 129v-184l-378 -197q-315 -164 -475 -164h-79v184h72z" />
<glyph unicode="&#x639;" horiz-adv-x="889" arabic-form="medial" d="M445 185q-175 -185 -357 -185h-106v184h86q97 0 156 40q53 36 89 75q-87 85 -148 175q-27 39 -27 84q0 31 11 72q15 55 108 107q81 45 188 45t187 -45q93 -52 108 -107q12 -41 12 -72q0 -45 -28 -84q-69 -98 -148 -175q28 -31 89 -75q55 -40 156 -40h86v-184h-106 q-182 0 -356 185zM444.5 597q-23.5 0 -50.5 -7q-42 -12 -42 -44q0 -29 93 -124q92 95 92 124q0 32 -42 44q-27 7 -50.5 7z" />
<glyph unicode="&#x63a;" horiz-adv-x="1099" arabic-form="isolated" d="M105 0zM338 1350h135v-150h-135v150zM305 -177q107 -158 412 -158q174 0 365 118v-184q-135 -99 -360 -99q-379 0 -528 188q-89 111 -89 312q0 177 79 278q101 131 171 156q-46 4 -89 34q-79 56 -79 186q0 208 184 335q111 77 338 77v-169q-175 0 -280 -65 q-83 -52 -83 -156q0 -75 43 -100q40 -24 82 -24q36 0 73 18q142 69 370 98v-184q-245 -26 -458 -175q-188 -131 -188 -316q0 -117 37 -170z" />
<glyph unicode="&#x63a;" horiz-adv-x="981" arabic-form="final" d="M105 0zM1082 -401q-137 -99 -368 -99q-379 0 -520 188q-89 122 -89 323t169 341q-55 50 -85.5 108t-30.5 100q0 110 112 174q87 48 194.5 48t192.5 -48q114 -64 114 -176q0 -91 -82 -158q-51 -43 -135 -75q61 -64 142.5 -102.5t158.5 -38.5h144v-184h-130 q-239 0 -462 228q-139 -129 -139 -236q0 -108 37 -169q96 -158 412 -158q174 0 365 118v-184zM435 445q122 56 122 104t-92.5 48t-92.5 -51q0 -36 63 -101zM382 1100h135v-150h-135v150z" />
<glyph unicode="&#x63a;" horiz-adv-x="963" arabic-form="initial" d="M0 0zM54 184q145 0 327 93q-68 24 -115 83q-79 100 -79 240q0 264 184 389q112 77 338 77v-169q-196 0 -279.5 -68.5t-83.5 -196t55 -179.5q75 -70 138 -70q50 0 116 33l259 129v-184l-378 -197q-315 -164 -475 -164h-79v184h72zM338 1350h135v-150h-135v150z" />
<glyph unicode="&#x63a;" horiz-adv-x="889" arabic-form="medial" d="M0 0zM445 185q-175 -185 -357 -185h-106v184h86q97 0 156 40q53 36 89 75q-87 85 -148 175q-27 39 -27 84q0 31 11 72q15 55 108 107q81 45 188 45t187 -45q93 -52 108 -107q12 -41 12 -72q0 -45 -28 -84q-69 -98 -148 -175q28 -31 89 -75q55 -40 156 -40h86v-184h-106 q-182 0 -356 185zM444.5 597q-23.5 0 -50.5 -7q-42 -12 -42 -44q0 -29 93 -124q92 95 92 124q0 32 -42 44q-27 7 -50.5 7zM377 1100h135v-150h-135v150z" />
<glyph unicode="&#x641;" horiz-adv-x="1910" arabic-form="isolated" d="M117 0zM1372 1300h135v-150h-135v150zM1545 537q37 43 37 120q0 59 -59 110q-28 25 -68 24q-47 -1 -83 -43q-36 -41 -36 -92q0 -80 49 -118q36 -25 74 -25q65 0 86 24zM1685 219q-99 -180 -385 -250q-245 -61 -504 -61q-265 0 -382 41q-296 100 -297 365q-1 138 57 230 h165q-58 -94 -58 -230q0 -116 183 -192q80 -34 332 -34q289 0 478 57q193 59 283 167q31 38 49 116q-56 -75 -166 -75q-120 0 -187 67q-88 87 -88 216q0 52 7 96q20 148 156 217q70 36 138 36q81 0 140 -50q87 -72 128 -174q22 -54 21 -191q-2 -226 -70 -351z" />
<glyph unicode="&#x641;" horiz-adv-x="1908" arabic-form="final" d="M117 0zM1490 36q-93 -43 -192 -67q-252 -60 -497 -60q-275 1 -387 40q-296 103 -297 365q-1 138 57 230h165q-58 -94 -58 -230q0 -115 183 -192q72 -31 342 -31q208 0 465 54l25 4q-31 27 -57 71q-73 124 -73 245q0 31 3 67q20 155 189 230q52 23 99 23q74 0 147 -50 q123 -83 139 -233q4 -37 4 -67q0 -144 -72 -250q8 -1 14 -1h237v-184h-241q-95 0 -195 36zM1490 223q94 65 94 187q0 20 -4 47q-13 71 -60 110q-30 25 -66 25q-22 0 -42 -10q-55 -25 -72 -85q-5 -19 -5 -37q0 -56 37 -122q44 -78 118 -115zM1372 1100h135v-150h-135v150z " />
<glyph unicode="&#x641;" horiz-adv-x="881" arabic-form="initial" d="M0 0zM538 537q37 43 37 120q0 59 -59 110q-28 25 -68 24q-47 -1 -83 -43q-36 -41 -37 -92q0 -80 50 -118q36 -25 74 -25q65 0 86 24zM-18 184h217q75 0 211 23q72 12 126 105q27 48 41 98q-57 -55 -144 -57q-117 -2 -187 67q-88 87 -88 216q0 52 7 96q20 148 155 217 q71 36 139 36q81 0 140 -50q87 -72 128 -174q21 -51 21 -191q0 -208 -70 -351q-67 -136 -178 -180q-99 -39 -229 -39h-289v184zM382 1300h135v-150h-135v150z" />
<glyph unicode="&#x641;" horiz-adv-x="932" arabic-form="medial" d="M0 0zM553 762q164 -80 186 -230q7 -50 7 -92q0 -73 -19 -122q-26 -67 -58 -117q35 -17 167 -17h114v-184h-195q-122 0 -289 57q-166 -57 -289 -57h-195v184h114q133 0 168 17q-26 40 -59 117q-19 46 -19 122q0 44 8 92q20 143 187 230q27 14 85 14q57 0 87 -14zM466 592 q-13 0 -30 -10q-50 -32 -72 -85q-8 -21 -8 -50q0 -43 21 -96q28 -68 89 -90q57 21 89 90q23 50 23 96q0 24 -10 50q-21 52 -72 85q-17 10 -30 10zM399 1150h135v-150h-135v150z" />
<glyph unicode="&#x642;" horiz-adv-x="1430" arabic-form="isolated" d="M96 0zM990 1300h135v-150h-135v150zM765 1300h135v-150h-135v150zM1073 537q37 43 37 120q0 59 -60 110q-28 25 -67 24q-47 -1 -83 -43q-36 -41 -37 -92q0 -80 50 -118q36 -25 73 -25q65 0 87 24zM475 -249q216 0 362 115q297 234 297 562q-57 -75 -166 -75 q-120 0 -188 67q-88 87 -88 216q0 52 7 96q21 148 156 217q70 36 139 36q89 0 140 -50q93 -90 128 -209q30 -102 30 -262q0 -204 -54 -344q-83 -213 -302 -402q-185 -159 -461 -158q-190 1 -309 192q-70 110 -70 284q0 180 74 396h165q-77 -185 -79 -340q-1 -60 10 -112 q47 -229 209 -229z" />
<glyph unicode="&#x642;" horiz-adv-x="1537" arabic-form="final" d="M96 0zM1087 10q-59 5 -101 18q-108 35 -160 78q-132 109 -132 294q0 61 5 87q36 165 169 234q36 19 115 19q101 0 151 -50q89 -88 134 -233q18 -58 24 -272q23 -1 26 -1h237v-184h-241h-43q-40 -122 -96 -192q-114 -145 -257 -223q-158 -86 -342 -85q-333 2 -418 192 q-62 138 -62 263q0 166 56 262h166q-56 -107 -56 -262q0 -76 24 -134q54 -130 290 -130q126 0 261 68q192 98 250 251zM1126 203q4 122 -16 209q-17 75 -60 110q-30 25 -65 25q-31 0 -50 -10q-46 -27 -65 -85q-9 -30 -9 -55q0 -60 52 -104q68 -59 158 -79q42 -9 55 -11z M1035 1025h135v-150h-135v150zM810 1025h135v-150h-135v150z" />
<glyph unicode="&#x642;" horiz-adv-x="881" arabic-form="initial" d="M0 0zM0 0zM538 537q37 43 37 120q0 59 -59 110q-28 25 -68 24q-47 -1 -83 -43q-36 -41 -37 -92q0 -80 50 -118q36 -25 74 -25q65 0 86 24zM-18 184h217q75 0 211 23q72 12 126 105q27 48 41 98q-57 -55 -144 -57q-117 -2 -187 67q-88 87 -88 216q0 52 7 96 q20 148 155 217q71 36 139 36q81 0 140 -50q87 -72 128 -174q21 -51 21 -191q0 -208 -70 -351q-67 -136 -178 -180q-99 -39 -229 -39h-289v184zM495 1300h135v-150h-135v150zM270 1300h135v-150h-135v150z" />
<glyph unicode="&#x642;" horiz-adv-x="932" arabic-form="medial" d="M0 0zM0 0zM553 762q164 -80 186 -230q7 -50 7 -92q0 -73 -19 -122q-26 -67 -58 -117q35 -17 167 -17h114v-184h-195q-122 0 -289 57q-166 -57 -289 -57h-195v184h114q133 0 168 17q-26 40 -59 117q-19 46 -19 122q0 44 8 92q20 143 187 230q27 14 85 14q57 0 87 -14z M466 592q-13 0 -30 -10q-50 -32 -72 -85q-8 -21 -8 -50q0 -43 21 -96q28 -68 89 -90q57 21 89 90q23 50 23 96q0 24 -10 50q-21 52 -72 85q-17 10 -30 10zM506 1150h135v-150h-135v150zM281 1150h135v-150h-135v150z" />
<glyph unicode="&#x643;" horiz-adv-x="1519" arabic-form="isolated" d="M130 0zM878 1135v-82q-66 -4 -100 -18q-72 -30 -72 -63q0 -28 12 -46q11 -16 72 -26q92 -15 92 -103q0 -110 -79 -152q-74 -39 -144 -39q-60 0 -110 11v88q61 -10 102 -10q54 0 105 26q54 26 54 56q0 38 -70 55q-67 16 -83 44q-29 47 -28 93q2 81 69 119q77 43 180 47z M1097 281q69 73 69 330v945h165v-945q0 -327 -99 -450q-134 -167 -333 -198q-122 -19 -229 -18q-186 2 -277 32q-263 88 -263 283q0 75 14 128h166q-13 -58 -13 -102q2 -92 146 -138q109 -35 223 -35q126 0 206 27q137 47 225 141z" />
<glyph unicode="&#x643;" horiz-adv-x="1553" arabic-form="final" d="M878 1135v-82q-66 -4 -100 -18q-72 -30 -72 -63q0 -28 12 -46q11 -16 72 -26q92 -15 92 -103q0 -110 -79 -152q-74 -39 -144 -39q-60 0 -110 11v88q61 -10 102 -10q54 0 105 26q54 26 54 56q0 38 -70 55q-67 16 -83 44q-29 47 -28 93q2 81 69 119q77 43 180 47zM899 -37 q-98 -20 -229 -18q-186 2 -277 32q-263 88 -263 283q0 75 14 128h166q-13 -58 -13 -102q2 -92 146 -138q109 -35 223 -35q126 0 206 27q137 47 225 141q69 73 69 330v945h165v-1173q0 -106 44 -155q40 -44 129 -44h67v-184h-117q-137 0 -239 123q-142 -126 -316 -160z" />
<glyph unicode="&#x643;" horiz-adv-x="877" arabic-form="initial" d="M279 0h-297v184h279q133 0 174 104q14 36 14 72q0 69 -49 135l-278 380q-46 61 -46 142q0 35 10 68q27 118 121 161l671 310v-186l-536 -250q-64 -30 -83 -70q-5 -11 -5 -36q0 -32 28 -69l247 -330q92 -123 92 -246q0 -113 -56 -214q-85 -155 -286 -155z" />
<glyph unicode="&#x643;" horiz-adv-x="1017" arabic-form="medial" d="M279 0h-297v184h279q133 0 174 104q14 36 14 72q0 69 -49 135l-278 380q-46 61 -46 142q0 35 10 68q27 118 121 161l671 310v-186l-536 -250q-64 -30 -83 -70q-5 -11 -5 -36q0 -32 28 -69l524 -705q20 -26 54 -40q39 -16 97 -16h79v-184h-119q-58 0 -111 24 q-92 43 -122 84l-87 120q-19 -46 -35 -73q-85 -155 -283 -155z" />
<glyph unicode="&#x644;" horiz-adv-x="1339" arabic-form="isolated" d="M130 0zM938 73q70 126 70 353v1130h166v-1130q0 -317 -89 -461q-109 -177 -343 -243q-121 -34 -198 -34q-85 0 -151 22q-263 92 -263 365q-1 138 56 230h166q-59 -115 -59 -230q0 -130 150 -192q36 -16 101 -16q72 0 171 34q156 53 223 172z" />
<glyph unicode="&#x644;" horiz-adv-x="1395" arabic-form="final" d="M938 73q70 126 70 353v1130h166v-1173q0 -106 44 -155q39 -44 128 -44h68v-184h-117q-101 0 -171 51q-16 -46 -41 -86q-109 -177 -343 -243q-121 -34 -198 -34q-89 0 -151 22q-263 91 -263 365q-1 138 56 230h166q-59 -115 -59 -230q0 -126 150 -192q36 -16 101 -16 q72 0 171 34q156 53 223 172z" />
<glyph unicode="&#x644;" horiz-adv-x="561" arabic-form="initial" d="M388 371q0 -178 -78 -279q-72 -92 -211 -92h-117v184h68q89 0 128 44q44 49 44 155v1173h166v-1185z" />
<glyph unicode="&#x644;" horiz-adv-x="610" arabic-form="medial" d="M305 86q-69 -86 -206 -86h-117v184h68q89 0 128 44q44 49 44 155v1173h166v-1173q0 -106 44 -155q40 -44 129 -44h67v-184h-117q-135 0 -206 86z" />
<glyph unicode="&#x645;" horiz-adv-x="1141" arabic-form="isolated" d="M126 0zM549 295q110 -42 178 -42q40 0 59 22q47 57 47 115q0 24 -5 44q-19 88 -72 105q-36 12 -77 12q-53 0 -78 -27q-61 -68 -61 -136q0 -40 9 -93zM441 155q-45 28 -113 -50q-22 -26 -22 -105v-492h-180v492q0 173 108 275q58 55 140 55q-2 42 -2 82q0 148 146 280 q69 63 152 63q69 0 140 -36q164 -83 189 -250q7 -45 7 -101q0 -146 -88 -211q-108 -80 -187 -80q-160 -2 -290 78z" />
<glyph unicode="&#x645;" horiz-adv-x="1226" arabic-form="final" d="M549 168q110 -42 178 -42q40 0 59 22q47 57 47 115q0 24 -5 44q-19 88 -72 105q-36 12 -77 12q-53 0 -78 -27q-61 -68 -61 -136q0 -40 9 -93zM943 52q-13 -14 -25 -22q-120 -80 -187 -80q-163 0 -290 78q-45 28 -113 -50q-22 -26 -22 -105v-365h-180v365q0 173 108 275 q58 55 140 55q-2 42 -2 82q0 148 146 280q69 63 152 63q64 0 140 -36q153 -71 189 -250q13 -67 49 -111q35 -44 129 -44h68v-184h-117q-158 0 -185 49z" />
<glyph unicode="&#x645;" horiz-adv-x="987" arabic-form="initial" d="M781 52q-87 -102 -220 -102q-185 0 -284 98q-57 -48 -151 -48h-144v184h104q47 0 86.5 35.5t43.5 84.5q18 181 140 261q84 56 157 56q158 0 240 -84q88 -89 88 -273q0 -143 -60 -212zM365 199q56 -69 199 -69q43 0 60 18q46 53 46 122q0 75 -36 113q-38 41 -116 41 q-42 0 -83 -30t-54 -127q-7 -37 -16 -68z" />
<glyph unicode="&#x645;" horiz-adv-x="1065" arabic-form="medial" d="M781 52q-87 -102 -212 -102q-193 0 -292 98q-57 -48 -151 -48h-144v184h104q47 0 87 36q39 35 43 84q18 181 140 261q84 56 168 56q65 0 124 -29q174 -83 189 -250q5 -49 50 -111q33 -44 129 -44h68v-184h-117q-159 0 -186 49zM365 199q56 -69 199 -69q43 0 60 18 q46 53 46 122q0 19 -4 37q-20 88 -72 105q-35 12 -70 12q-48 0 -85 -27q-45 -33 -58 -130q-7 -37 -16 -68z" />
<glyph unicode="&#x646;" horiz-adv-x="1353" arabic-form="isolated" d="M132 0zM518 950h135v-150h-135v150zM1217 312q0 -173 -90 -351q-100 -197 -323 -265q-88 -27 -160 -27q-118 0 -216 37q-296 106 -296 462q0 235 43 316h165q-44 -144 -44 -316q0 -237 181 -289q83 -24 167 -24q69 0 133 20q173 53 242 275q30 98 30 194q0 184 -91 406 h165q94 -156 94 -438z" />
<glyph unicode="&#x646;" horiz-adv-x="1403" arabic-form="final" d="M132 0zM1123 581q40 -97 64 -193q20 -80 65 -140q48 -64 102 -64h67v-184h-117q-64 0 -94 48q-3 -109 -83 -256q-108 -199 -323 -265q-88 -27 -170 -27q-105 0 -206 37q-296 107 -296 462q0 175 43 316h165q-44 -137 -44 -316q0 -236 181 -289q81 -24 149 -24 q80 0 151 20q174 48 242 275q29 101 29 213q0 184 -90 387h165zM518 700h135v-150h-135v150z" />
<glyph unicode="&#x646;" horiz-adv-x="513" arabic-form="initial" d="M0 0zM202 1000h135v-150h-135v150zM0 0zM269 86q-65 -86 -206 -86h-81v184h32q89 0 128 44q44 49 44 155v217h166v-217q0 -187 -83 -297z" />
<glyph unicode="&#x646;" horiz-adv-x="556" arabic-form="medial" d="M0 0zM202 1000h135v-150h-135v150zM0 0zM269 86q-69 -86 -206 -86h-81v184h32q89 0 128 44q44 49 44 155v217h166v-217q0 -106 44 -155q40 -44 129 -44h49v-184h-99q-135 0 -206 86z" />
<glyph unicode="&#x647;" horiz-adv-x="965" arabic-form="isolated" d="M125 0zM399 554q-60 0 -89 -87q-24 -69 -23 -192q1 -82 51 -126q51 -44 102 -44q82 0 166 57q67 46 67 131q0 77 -59 142q-111 120 -215 119zM366 734q178 0 342 -160q127 -124 127 -272q-1 -200 -133 -275q-148 -85 -267 -85q-87 0 -160 35q-150 74 -150 313 q0 181 33 259q76 185 208 185z" />
<glyph unicode="&#x647;" horiz-adv-x="988" arabic-form="final" d="M608 282q-13 42 -25 91q-11 50 -22 151q-108 -12 -182 -79q-100 -89 -98 -151q1 -41 82 -66t245 54zM548 668q-4 39 -6 82h165q1 -168 34 -342q19 -101 69 -180q28 -44 129 -44h67v-184h-117q-81 0 -147 51q-40 31 -74 90q-124 -73 -265 -73q-50 0 -102 15 q-171 48 -171 202q0 173 184 300q98 68 234 83z" />
<glyph unicode="&#x647;" horiz-adv-x="972" arabic-form="initial" d="M364 269q32 27 63 91q35 72 35 133q0 46 -14 83q-20 52 -72 52q-58 0 -79 -45q-20 -43 -20 -78q0 -30 7 -67q18 -118 80 -169zM78 184q47 0 117 11q-40 105 -54 174q-16 78 -16 142q0 84 41 167q43 90 112 81q-40 39 -112 53v185q200 -68 395 -247q230 -209 288 -431 q12 -52 12 -109q0 -103 -36 -164q-66 -113 -224 -113q-118 0 -256 108q-108 -41 -240 -41h-123v184h96zM597 508q5 -37 5 -76q0 -147 -88 -252q-11 -14 -26 -33q47 -46 91 -46q112 0 127 67q7 30 7 63q0 60 -30 138q-26 69 -86 139z" />
<glyph unicode="&#x647;" horiz-adv-x="849" arabic-form="medial" d="M305 184h17q38 0 124 76q103 90 103 142q0 112 -76 112q-67 0 -134 -141q-34 -72 -34 -189zM140 184q8 266 124 392q97 107 213 107q124 0 186 -99q42 -67 42 -181q0 -111 -147 -219h310v-184h-310q147 -108 147 -219q0 -114 -42 -181q-62 -99 -186 -99q-116 0 -213 107 q-116 128 -124 392h-158v184h158zM305 0q0 -117 34 -189q67 -141 134 -141q76 0 76 112q0 52 -103 142q-86 76 -124 76h-17z" />
<glyph unicode="&#x648;" horiz-adv-x="890" arabic-form="isolated" d="M0 0zM445 452q-57 0 -97 -57q-21 -33 -21 -69q0 -51 46 -98q42 -44 215 -44q0 184 -78 243q-33 25 -65 25zM749 184q0 -308 -155 -468q-86 -88 -169 -130q-173 -86 -501 -86v184q323 0 443 76q151 95 207 243q-106 0 -146 10q-136 33 -172 67q-104 98 -104 235 q0 141 80 228q94 103 217 103q80 0 145 -51q117 -90 140 -233q15 -102 15 -178z" />
<glyph unicode="&#x648;" horiz-adv-x="952" arabic-form="final" d="M588 184q0 76 -15 133q-21 80 -63 110q-54 41 -108 15q-60 -29 -72 -85q-15 -75 43 -129q42 -40 215 -44zM749 184h221v-184h-174l-63 1q-23 -156 -139 -285q-75 -83 -169 -130q-173 -86 -501 -86v184q324 0 443 76q151 95 207 243q-106 3 -146 10q-126 24 -172 67 q-95 89 -104 224q-2 31 7 88q25 155 183 230q53 25 112 24q78 -2 140 -51q120 -92 140 -233q11 -83 15 -178z" />
<glyph unicode="&#x649;" horiz-adv-x="1442" arabic-form="isolated" d="M117 0zM1229 12q-91 -170 -400 -243q-159 -38 -267 -38q-116 0 -181 26q-264 104 -264 365q0 117 57 230h165q-59 -131 -58 -230q2 -147 149 -192q88 -26 142 -20q114 11 230 35q159 33 235 113q53 56 53 109q0 74 -114 103q-59 15 -162 61q-60 27 -112 78 q-58 57 -58 172q0 150 170 224q86 37 179.5 37t180.5 -42q126 -61 151 -234h-166q-11 61 -71 94q-36 20 -98 22q-70 2 -126 -37q-54 -38 -54 -72q0 -55 112 -97q224 -83 275 -147q69 -85 71 -174q1 -68 -39 -143z" />
<glyph unicode="&#x649;" horiz-adv-x="1536" arabic-form="final" d="M990 -33q82 51 82 84q-1 43 -43 56q-26 8 -53 48q-40 59 -40 120q0 65 47 125q72 94 147 108q27 6 65 6q105 0 184 -134q115 -196 144 -196h31v-184h-31q-103 0 -204 172q-97 165 -120 165q-33 0 -46 -6q-41 -17 -41 -52q0 -48 59 -75q66 -30 68 -153q3 -98 -99 -184 q-115 -96 -311 -127q-80 -12 -174 -12q-169 0 -274 41q-264 103 -264 365q0 153 57 243h165q-58 -90 -58 -243q0 -114 149 -192q60 -31 221 -31q82 0 151 8q134 15 188 48z" />
<glyph unicode="&#x64a;" horiz-adv-x="1442" arabic-form="isolated" d="M117 0zM675 -350h135v-150h-135v150zM450 -350h135v-150h-135v150zM1229 12q-91 -170 -400 -243q-159 -38 -267 -38q-116 0 -181 26q-264 104 -264 365q0 117 57 230h165q-59 -131 -58 -230q2 -147 149 -192q88 -26 142 -20q114 11 230 35q159 33 235 113q53 56 53 109 q0 74 -114 103q-59 15 -162 61q-60 27 -112 78q-58 57 -58 172q0 150 170 224q86 37 179.5 37t180.5 -42q126 -61 151 -234h-166q-11 61 -71 94q-36 20 -98 22q-70 2 -126 -37q-54 -38 -54 -72q0 -55 112 -97q224 -83 275 -147q69 -85 71 -174q1 -68 -39 -143z" />
<glyph unicode="&#x64a;" horiz-adv-x="1536" arabic-form="final" d="M117 0zM675 -350h135v-150h-135v150zM450 -350h135v-150h-135v150zM990 -33q82 51 82 84q-1 43 -43 56q-26 8 -53 48q-40 59 -40 120q0 65 47 125q72 94 147 108q27 6 65 6q105 0 184 -134q115 -196 144 -196h31v-184h-31q-103 0 -204 172q-97 165 -120 165q-33 0 -46 -6 q-41 -17 -41 -52q0 -48 59 -75q66 -30 68 -153q3 -98 -99 -184q-115 -96 -311 -127q-80 -12 -174 -12q-169 0 -274 41q-264 103 -264 365q0 153 57 243h165q-58 -90 -58 -243q0 -114 149 -192q60 -31 221 -31q82 0 151 8q134 15 188 48z" />
<glyph unicode="&#x64a;" horiz-adv-x="513" arabic-form="initial" d="M0 0zM269 86q-65 -86 -206 -86h-81v184h32q89 0 128 44q44 49 44 155v217h166v-217q0 -187 -83 -297zM314 -150h135v-150h-135v150zM89 -150h135v-150h-135v150z" />
<glyph unicode="&#x64a;" horiz-adv-x="556" arabic-form="medial" d="M0 0zM269 86q-69 -86 -206 -86h-81v184h32q89 0 128 44q44 49 44 155v217h166v-217q0 -106 44 -155q40 -44 129 -44h49v-184h-99q-135 0 -206 86zM314 -150h135v-150h-135v150zM89 -150h135v-150h-135v150z" />
<glyph unicode="&#xd;" horiz-adv-x="682" />
<glyph unicode=" "  horiz-adv-x="585" />
<glyph unicode="&#x09;" horiz-adv-x="585" />
<glyph unicode="&#xa0;" horiz-adv-x="585" />
<glyph unicode="!" horiz-adv-x="738" d="M278 254h183v-254h-183v254zM278 1493h183v-655l-18 -357h-146l-19 357v655z" />
<glyph unicode="&#x22;" horiz-adv-x="847" d="M330 1493v-555h-153v555h153zM670 1493v-555h-152v555h152z" />
<glyph unicode="#" d="M942 901h-262l-75 -334h263zM807 1470l-93 -415h262l95 415h144l-93 -415h281v-154h-316l-74 -334h287v-153h-322l-93 -414h-144l92 414h-263l-93 -414h-145l94 414h-284v153h317l76 334h-290v154h325l92 415h145z" />
<glyph unicode="$" horiz-adv-x="1172" d="M623 -301h-90l-1 301q-95 2 -189.5 24.5t-189.5 67.5v180q92 -64 186 -96.5t194 -33.5v456q-199 36 -289.5 122t-90.5 236q0 163 98 257t282 108v235h90v-232q83 -4 161.5 -19.5t153.5 -42.5v-175q-75 42 -153.5 65t-161.5 27v-427q204 -35 300.5 -125t96.5 -246 q0 -169 -102.5 -266.5t-294.5 -112.5v-303zM533 770v410q-105 -13 -159.5 -66t-54.5 -141q0 -86 50.5 -134t163.5 -69zM623 578v-433q114 17 172 72t58 145q0 88 -55.5 140t-174.5 76z" />
<glyph unicode="%" horiz-adv-x="1751" d="M1340 657q-78 0 -122.5 -74t-44.5 -206q0 -130 44.5 -204.5t122.5 -74.5q77 0 121.5 74.5t44.5 204.5q0 131 -44.5 205.5t-121.5 74.5zM1340 784q142 0 226 -110t84 -297t-84.5 -296.5t-225.5 -109.5q-144 0 -227.5 109.5t-83.5 296.5q0 188 84 297.5t227 109.5z M411 1393q-77 0 -121.5 -74.5t-44.5 -204.5q0 -132 44 -206t122 -74q79 0 123.5 74t44.5 206q0 129 -45 204t-123 75zM1224 1520h144l-841 -1549h-144zM411 1520q143 0 227.5 -109.5t84.5 -296.5q0 -189 -84.5 -298t-227.5 -109t-226 109.5t-83 297.5q0 186 83.5 296 t225.5 110z" />
<glyph unicode="&#x26;" horiz-adv-x="1437" d="M448 803q-82 -81 -120 -161.5t-38 -168.5q0 -146 95.5 -243t239.5 -97q85 0 160 31.5t140 95.5zM575 915l457 -520q53 89 83 190.5t35 215.5h168q-11 -132 -58 -261t-130 -255l251 -285h-227l-129 147q-93 -89 -196 -132.5t-221 -43.5q-216 0 -354 137.5t-138 352.5 q0 128 60.5 240.5t180.5 211.5q-43 63 -65.5 125.5t-22.5 122.5q0 162 100 260.5t265 98.5q75 0 149.5 -18t150.5 -54v-182q-78 47 -149 71.5t-133 24.5q-94 0 -153 -55.5t-59 -143.5q0 -51 26.5 -102.5t108.5 -145.5z" />
<glyph unicode="'" horiz-adv-x="506" d="M330 1493v-555h-153v555h153z" />
<glyph unicode="(" horiz-adv-x="719" d="M572 1554q-121 -230 -179.5 -455t-58.5 -456t59 -457.5t179 -455.5h-144q-136 235 -203 462t-67 451q0 223 67 449t203 462h144z" />
<glyph unicode=")" horiz-adv-x="719" d="M148 1554h144q135 -236 202 -462t67 -449q0 -224 -67 -451t-202 -462h-144q119 229 178 455.5t59 457.5t-59 456t-178 455z" />
<glyph unicode="*" horiz-adv-x="921" d="M867 1247l-323 -194l323 -195l-53 -98l-302 203v-377h-102v377l-303 -203l-52 98l323 195l-323 194l52 99l303 -203v377h102v-377l302 203z" />
<glyph unicode="+" d="M848 1284v-557h501v-170h-501v-557h-151v557h-502v170h502v557h151z" />
<glyph unicode="," horiz-adv-x="585" d="M216 254h190v-172l-148 -320h-116l74 320v172z" />
<glyph unicode="-" horiz-adv-x="665" d="M90 643h485v-164h-485v164z" />
<glyph unicode="." horiz-adv-x="585" d="M197 254h190v-254h-190v254z" />
<glyph unicode="/" horiz-adv-x="621" d="M468 1493h153l-468 -1683h-153z" />
<glyph unicode="0" horiz-adv-x="1172" d="M586 1360q-140 0 -211 -153.5t-71 -461.5q0 -307 71 -460.5t211 -153.5q141 0 211.5 153.5t70.5 460.5q0 308 -70.5 461.5t-211.5 153.5zM586 1520q226 0 345 -198.5t119 -576.5q0 -377 -119 -575.5t-345 -198.5t-345 198.5t-119 575.5q0 378 119 576.5t345 198.5z" />
<glyph unicode="1" horiz-adv-x="1172" d="M229 170h297v1139l-324 -72v184l322 72h182v-1323h297v-170h-774v170z" />
<glyph unicode="2" horiz-adv-x="1172" d="M354 170h634v-170h-853v170q103 119 282 319.5t225 258.5q87 109 121.5 184.5t34.5 148.5q0 119 -75 194t-196 75q-85 0 -180 -33t-203 -100v204q110 49 205.5 74t174.5 25q209 0 333 -116t124 -310q0 -92 -31 -174.5t-113 -194.5q-23 -29 -143.5 -167.5t-339.5 -387.5z " />
<glyph unicode="3" horiz-adv-x="1172" d="M748 805q130 -31 203.5 -129t73.5 -242q0 -221 -136.5 -342t-388.5 -121q-85 0 -174.5 18.5t-185.5 55.5v195q76 -49 166 -74t188 -25q171 0 260.5 75t89.5 218q0 132 -83 206.5t-232 74.5h-156v166h163q134 0 205.5 59.5t71.5 171.5q0 115 -73.5 176.5t-210.5 61.5 q-75 0 -160 -18t-188 -56v180q103 32 193.5 48t170.5 16q207 0 328 -104.5t121 -282.5q0 -124 -64 -209.5t-182 -118.5z" />
<glyph unicode="4" horiz-adv-x="1172" d="M697 1317l-459 -797h459v797zM649 1493h229v-973h191v-168h-191v-352h-181v352h-607v195z" />
<glyph unicode="5" horiz-adv-x="1172" d="M199 1493h714v-170h-548v-366q40 15 79.5 22.5t79.5 7.5q225 0 356.5 -137t131.5 -371q0 -241 -135 -374.5t-381 -133.5q-85 0 -172.5 16t-181.5 48v203q81 -49 167.5 -73t182.5 -24q156 0 247 91t91 247t-91 247t-247 91q-73 0 -145.5 -18t-147.5 -56v750z" />
<glyph unicode="6" horiz-adv-x="1172" d="M608 827q-122 0 -193.5 -93t-71.5 -255q0 -161 71.5 -254.5t193.5 -93.5q123 0 194.5 93.5t71.5 254.5q0 162 -71.5 255t-194.5 93zM969 1460v-184q-68 36 -138 55t-138 19q-180 0 -275 -135t-108 -408q53 87 133 133.5t176 46.5q203 0 320.5 -136.5t117.5 -371.5 q0 -230 -122.5 -369t-326.5 -139q-233 0 -356 198.5t-123 575.5q0 354 151 564.5t406 210.5q68 0 138 -15t145 -45z" />
<glyph unicode="7" horiz-adv-x="1172" d="M151 1493h864v-86l-488 -1407h-189l458 1323h-645v170z" />
<glyph unicode="8" horiz-adv-x="1172" d="M586 709q-130 0 -204 -77t-74 -212t74 -212t204 -77t204.5 77.5t74.5 211.5q0 135 -74.5 212t-204.5 77zM404 795q-117 32 -182 121t-65 217q0 179 114.5 283t314.5 104q201 0 315 -104t114 -283q0 -128 -65 -217t-181 -121q131 -34 204.5 -133t73.5 -242 q0 -217 -119.5 -333t-341.5 -116t-341.5 116t-119.5 333q0 143 74 242t205 133zM338 1114q0 -116 65 -181t183 -65q117 0 183 65t66 181t-66 181t-183 65q-118 0 -183 -65t-65 -181z" />
<glyph unicode="9" horiz-adv-x="1172" d="M202 31v184q69 -36 139 -55t138 -19q180 0 275 134.5t108 408.5q-52 -86 -132 -132t-177 -46q-202 0 -319.5 135.5t-117.5 370.5q0 230 122.5 369t325.5 139q233 0 356 -198.5t123 -576.5q0 -353 -150.5 -563.5t-405.5 -210.5q-69 0 -139 15t-146 45zM564 664 q123 0 194.5 93t71.5 255q0 161 -71.5 254.5t-194.5 93.5q-122 0 -193.5 -93.5t-71.5 -254.5q0 -162 71.5 -255t193.5 -93z" />
<glyph unicode=":" horiz-adv-x="621" d="M216 254h190v-254h-190v254zM216 1059h190v-254h-190v254z" />
<glyph unicode=";" horiz-adv-x="621" d="M216 1059h190v-254h-190v254zM216 254h190v-172l-148 -320h-116l74 320v172z" />
<glyph unicode="&#x3c;" d="M1349 1008l-929 -367l929 -365v-182l-1154 465v166l1154 465v-182z" />
<glyph unicode="=" d="M195 930h1154v-168h-1154v168zM195 522h1154v-170h-1154v170z" />
<glyph unicode="&#x3e;" d="M195 1008v182l1154 -465v-166l-1154 -465v182l927 365z" />
<glyph unicode="?" horiz-adv-x="978" d="M352 254h183v-254h-183v254zM529 401h-172v154q0 101 25.5 166t106.5 151l81 89q51 53 74 100t23 96q0 89 -59 144t-156 55q-71 0 -151.5 -35t-168.5 -102v188q85 57 172 85t179 28q166 0 266.5 -97t100.5 -256q0 -76 -32.5 -144.5t-113.5 -154.5l-79 -86 q-43 -47 -60.5 -73.5t-24.5 -51.5q-5 -21 -8 -51t-3 -82v-123z" />
<glyph unicode="@" horiz-adv-x="1843" d="M686 537q0 -143 64 -224.5t175 -81.5t174.5 82t63.5 224q0 140 -65 222.5t-175 82.5q-109 0 -173 -82t-64 -223zM1176 238q-54 -77 -123.5 -113.5t-162.5 -36.5q-155 0 -251.5 124.5t-96.5 324.5t97 325t251 125q93 0 163 -37.5t123 -113.5v131h129v-736 q131 22 205.5 133.5t74.5 288.5q0 107 -28.5 201t-85.5 174q-94 131 -228.5 200.5t-292.5 69.5q-111 0 -213 -32.5t-188 -96.5q-141 -102 -221 -267.5t-80 -358.5q0 -159 52 -298t150 -245q94 -104 218.5 -158.5t265.5 -54.5q116 0 228 43.5t206 124.5l81 -111 q-113 -97 -245.5 -148.5t-269.5 -51.5q-166 0 -314 65.5t-263 190.5t-175 289.5t-60 353.5q0 182 61 347t174 290q116 127 268.5 194.5t322.5 67.5q190 0 353.5 -87t274.5 -247q67 -98 102.5 -213t35.5 -238q0 -263 -143 -415t-395 -158v154z" />
<glyph unicode="A" horiz-adv-x="1260" d="M630 1294l-247 -743h495zM527 1493h207l512 -1493h-189l-123 383h-606l-122 -383h-192z" />
<glyph unicode="B" horiz-adv-x="1264" d="M363 713v-547h291q147 0 217.5 67.5t70.5 206.5q0 140 -70.5 206.5t-217.5 66.5h-291zM363 1327v-450h269q133 0 198.5 55.5t65.5 169.5q0 113 -65.5 169t-198.5 56h-269zM181 1493h464q208 0 320.5 -96t112.5 -273q0 -137 -57.5 -218t-169.5 -101q135 -32 209 -133.5 t74 -253.5q0 -200 -122.5 -309t-348.5 -109h-482v1493z" />
<glyph unicode="C" horiz-adv-x="1287" d="M1187 1378v-213q-92 95 -196 142t-221 47q-230 0 -352.5 -156.5t-122.5 -452.5q0 -295 122.5 -451.5t352.5 -156.5q117 0 221 47t196 142v-211q-95 -72 -202 -108t-225 -36q-306 0 -481 207.5t-175 566.5q0 360 175 567.5t481 207.5q120 0 227 -35.5t200 -106.5z" />
<glyph unicode="D" horiz-adv-x="1419" d="M363 1327v-1161h219q278 0 407.5 140t129.5 442q0 300 -129.5 439.5t-407.5 139.5h-219zM181 1493h373q391 0 573.5 -180.5t182.5 -564.5q0 -386 -183.5 -567t-572.5 -181h-373v1493z" />
<glyph unicode="E" horiz-adv-x="1164" d="M181 1493h849v-170h-667v-442h640v-170h-640v-541h684v-170h-866v1493z" />
<glyph unicode="F" horiz-adv-x="1060" d="M181 1493h772v-170h-590v-440h533v-170h-533v-713h-182v1493z" />
<glyph unicode="G" horiz-adv-x="1428" d="M1097 213v401h-297v166h477v-641q-105 -83 -232 -125.5t-271 -42.5q-315 0 -492.5 204.5t-177.5 569.5q0 366 177.5 570.5t492.5 204.5q131 0 249.5 -36t218.5 -106v-215q-101 95 -214.5 143t-238.5 48q-246 0 -370 -153t-124 -456q0 -302 124 -455t370 -153 q97 0 172.5 18.5t135.5 57.5z" />
<glyph unicode="H" horiz-adv-x="1386" d="M181 1493h182v-612h660v612h182v-1493h-182v711h-660v-711h-182v1493z" />
<glyph unicode="I" horiz-adv-x="543" d="M181 1493h182v-1493h-182v1493z" />
<glyph unicode="J" horiz-adv-x="543" d="M181 1493h182v-1389q0 -270 -92.5 -392t-296.5 -122h-69v170h56q121 0 170.5 75t49.5 269v1389z" />
<glyph unicode="K" horiz-adv-x="1208" d="M181 1493h182v-631l603 631h234l-667 -696l714 -797h-239l-645 719v-719h-182v1493z" />
<glyph unicode="L" horiz-adv-x="1026" d="M181 1493h182v-1323h654v-170h-836v1493z" />
<glyph unicode="M" horiz-adv-x="1590" d="M181 1493h271l343 -1016l344 1016h271v-1493h-177v1311l-347 -1024h-182l-347 1024v-1311h-176v1493z" />
<glyph unicode="N" horiz-adv-x="1378" d="M181 1493h245l596 -1249v1249h176v-1493h-245l-596 1249v-1249h-176v1493z" />
<glyph unicode="O" horiz-adv-x="1450" d="M726 1356q-198 0 -314.5 -164t-116.5 -447q0 -282 116.5 -446t314.5 -164t314 164t116 446q0 283 -116 447t-314 164zM726 1520q283 0 452 -210.5t169 -564.5q0 -353 -169 -563.5t-452 -210.5t-452.5 210t-169.5 564t169.5 564.5t452.5 210.5z" />
<glyph unicode="P" horiz-adv-x="1111" d="M363 1327v-561h228q127 0 196.5 73t69.5 208q0 134 -69.5 207t-196.5 73h-228zM181 1493h410q226 0 341.5 -113.5t115.5 -332.5q0 -221 -115.5 -334t-341.5 -113h-228v-600h-182v1493z" />
<glyph unicode="Q" horiz-adv-x="1450" d="M726 1356q-198 0 -314.5 -164t-116.5 -447q0 -282 116.5 -446t314.5 -164t314 164t116 446q0 283 -116 447t-314 164zM981 27l239 -291h-219l-199 239q-30 -2 -45.5 -3t-30.5 -1q-283 0 -452.5 210.5t-169.5 563.5q0 354 169.5 564.5t452.5 210.5t452 -210.5t169 -564.5 q0 -260 -94 -445t-272 -273z" />
<glyph unicode="R" horiz-adv-x="1280" d="M818 700q59 -22 114 -94t111 -198l185 -408h-196l-172 383q-66 150 -128.5 199t-170.5 49h-198v-631h-182v1493h410q231 0 344 -107t113 -323q0 -141 -58.5 -234t-171.5 -129zM363 1327v-530h228q132 0 199 67.5t67 198.5t-67 197.5t-199 66.5h-228z" />
<glyph unicode="S" horiz-adv-x="1170" d="M986 1444v-197q-103 55 -195 82t-177 27q-149 0 -229.5 -64t-80.5 -182q0 -99 53.5 -149.5t203.5 -81.5l109 -25q204 -43 300.5 -151.5t96.5 -290.5q0 -217 -130.5 -329t-383.5 -112q-96 0 -203.5 24t-222.5 71v208q111 -69 217 -104t209 -35q155 0 240 68t85 194 q0 110 -61 172t-200 93l-110 24q-204 45 -294.5 141t-90.5 267q0 198 125.5 312t345.5 114q95 0 193 -19t200 -57z" />
<glyph unicode="T" horiz-adv-x="1125" d="M-5 1493h1136v-170h-477v-1323h-182v1323h-477v170z" />
<glyph unicode="U" horiz-adv-x="1349" d="M160 1493h183v-907q0 -240 78.5 -345.5t253.5 -105.5t253 105.5t78 345.5v907h183v-932q0 -292 -130 -441t-384 -149q-255 0 -385 149t-130 441v932z" />
<glyph unicode="V" horiz-adv-x="1260" d="M527 0l-513 1493h190l426 -1257l427 1257h189l-512 -1493h-207z" />
<glyph unicode="W" horiz-adv-x="1822" d="M61 1493h184l282 -1262l282 1262h204l283 -1262l282 1262h184l-337 -1493h-229l-283 1296l-287 -1296h-228z" />
<glyph unicode="X" horiz-adv-x="1262" d="M116 1493h195l334 -555l336 555h195l-432 -717l461 -776h-195l-378 635l-381 -635h-196l480 797z" />
<glyph unicode="Y" horiz-adv-x="1125" d="M-4 1493h196l372 -614l370 614h196l-476 -782v-711h-182v711z" />
<glyph unicode="Z" horiz-adv-x="1262" d="M104 1493h1055v-154l-849 -1169h870v-170h-1097v154l849 1169h-828v170z" />
<glyph unicode="[" horiz-adv-x="719" d="M158 1556h382v-143h-216v-1540h216v-143h-382v1826z" />
<glyph unicode="\" horiz-adv-x="621" d="M153 1493l468 -1683h-153l-468 1683h153z" />
<glyph unicode="]" horiz-adv-x="719" d="M561 1556v-1826h-382v143h215v1540h-215v143h382z" />
<glyph unicode="^" d="M860 1493l489 -557h-181l-396 395l-396 -395h-181l489 557h176z" />
<glyph unicode="_" horiz-adv-x="921" d="M940 -340v-143h-958v143h958z" />
<glyph unicode="`" horiz-adv-x="921" d="M330 1638l254 -374h-138l-293 374h177z" />
<glyph unicode="a" horiz-adv-x="1129" d="M632 563q-201 0 -278.5 -51t-77.5 -174q0 -98 58 -155.5t158 -57.5q138 0 221 108.5t83 288.5v41h-164zM962 639v-639h-166v170q-56 -102 -140.5 -150.5t-207.5 -48.5q-155 0 -246 96.5t-91 258.5q0 189 113.5 285t339.5 96h232v18q0 127 -75 196.5t-211 69.5 q-86 0 -168 -23t-158 -69v170q91 39 176.5 58.5t166.5 19.5q219 0 327 -126t108 -382z" />
<glyph unicode="b" horiz-adv-x="1170" d="M897 559q0 203 -75 318.5t-206 115.5q-132 0 -207 -115.5t-75 -318.5t75 -318.5t207 -115.5q131 0 206 115.5t75 318.5zM334 950q52 100 131.5 148.5t190.5 48.5q184 0 298.5 -162t114.5 -426t-114.5 -426t-298.5 -162q-111 0 -190.5 48.5t-131.5 148.5v-168h-167v1556 h167v-606z" />
<glyph unicode="c" horiz-adv-x="1013" d="M899 1077v-172q-70 43 -140.5 64.5t-142.5 21.5q-162 0 -251 -113.5t-89 -318.5t89 -318.5t251 -113.5q72 0 142.5 21.5t140.5 64.5v-170q-69 -36 -143.5 -54t-157.5 -18q-228 0 -362 159t-134 429q0 274 135.5 431t370.5 157q77 0 150 -17.5t141 -52.5z" />
<glyph unicode="d" horiz-adv-x="1170" d="M837 950v606h166v-1556h-166v168q-52 -100 -131.5 -148.5t-191.5 -48.5q-183 0 -297.5 162t-114.5 426t114.5 426t297.5 162q112 0 191.5 -48.5t131.5 -148.5zM273 559q0 -203 75 -318.5t206 -115.5q132 0 207.5 115.5t75.5 318.5t-75.5 318.5t-207.5 115.5 q-131 0 -206 -115.5t-75 -318.5z" />
<glyph unicode="e" horiz-adv-x="1134" d="M1036 606v-90h-762q11 -190 103.5 -289.5t256.5 -99.5q96 0 185.5 26t177.5 78v-174q-89 -42 -182.5 -64t-189.5 -22q-242 0 -382.5 156t-140.5 422q0 275 133.5 436.5t360.5 161.5q203 0 321.5 -145.5t118.5 -395.5zM870 660q-2 151 -76 241t-196 90q-139 0 -222.5 -87 t-95.5 -245z" />
<glyph unicode="f" horiz-adv-x="648" d="M684 1556v-153h-158q-90 0 -124.5 -40t-34.5 -144v-99h273v-143h-273v-977h-166v977h-159v143h159v78q0 187 78 272.5t248 85.5h157z" />
<glyph unicode="g" horiz-adv-x="1170" d="M837 573q0 200 -74.5 310t-208.5 110q-133 0 -207 -110t-74 -310q0 -199 74 -309t207 -110q134 0 208.5 110t74.5 309zM1003 139q0 -286 -114.5 -425.5t-350.5 -139.5q-87 0 -164.5 14.5t-150.5 44.5v179q73 -44 144 -65t145 -21q163 0 244 94.5t81 285.5v91 q-51 -99 -131 -148t-192 -49q-186 0 -299 157t-113 416q0 260 113 417t299 157q112 0 192 -49t131 -148v170h166v-981z" />
<glyph unicode="h" horiz-adv-x="1168" d="M1012 676v-676h-166v670q0 159 -56 238t-167 79q-134 0 -211.5 -95t-77.5 -259v-633h-167v1556h167v-610q59 101 139.5 151t186.5 50q173 0 262.5 -119.5t89.5 -351.5z" />
<glyph unicode="i" horiz-adv-x="512" d="M174 1120h165v-1120h-165v1120zM174 1556h165v-233h-165v233z" />
<glyph unicode="j" horiz-adv-x="512" d="M174 1120h165v-1140q0 -214 -73 -310t-236 -96h-63v156h44q94 0 128.5 48.5t34.5 201.5v1140zM174 1556h165v-233h-165v233z" />
<glyph unicode="k" horiz-adv-x="1067" d="M167 1556h167v-919l494 483h212l-535 -524l557 -596h-216l-512 547v-547h-167v1556z" />
<glyph unicode="l" horiz-adv-x="512" d="M174 1556h165v-1556h-165v1556z" />
<glyph unicode="m" horiz-adv-x="1795" d="M958 905q63 124 149 183t203 59q158 0 243.5 -122.5t85.5 -348.5v-676h-167v670q0 161 -51 239t-157 78q-128 0 -203 -95t-75 -259v-633h-166v670q0 162 -51.5 239.5t-158.5 77.5q-127 0 -201.5 -95.5t-74.5 -258.5v-633h-167v1120h167v-174q57 103 136 152t188 49 q110 0 187 -62t113 -180z" />
<glyph unicode="n" horiz-adv-x="1168" d="M1012 676v-676h-166v670q0 159 -56 238t-167 79q-134 0 -211.5 -95t-77.5 -259v-633h-167v1120h167v-174q59 101 139.5 151t186.5 50q173 0 262.5 -119.5t89.5 -351.5z" />
<glyph unicode="o" horiz-adv-x="1127" d="M564 991q-133 0 -210.5 -115.5t-77.5 -316.5t77 -316.5t211 -115.5q133 0 210 116t77 316q0 199 -77 315.5t-210 116.5zM564 1147q216 0 339.5 -156t123.5 -432q0 -275 -123.5 -431.5t-339.5 -156.5q-217 0 -339.5 156.5t-122.5 431.5q0 276 122.5 432t339.5 156z" />
<glyph unicode="p" horiz-adv-x="1170" d="M334 168v-594h-167v1546h167v-170q52 100 131.5 148.5t190.5 48.5q184 0 298.5 -162t114.5 -426t-114.5 -426t-298.5 -162q-111 0 -190.5 48.5t-131.5 148.5zM897 559q0 203 -75 318.5t-206 115.5q-132 0 -207 -115.5t-75 -318.5t75 -318.5t207 -115.5q131 0 206 115.5 t75 318.5z" />
<glyph unicode="q" horiz-adv-x="1170" d="M273 559q0 -203 75 -318.5t206 -115.5q132 0 207.5 115.5t75.5 318.5t-75.5 318.5t-207.5 115.5q-131 0 -206 -115.5t-75 -318.5zM837 168q-52 -100 -131.5 -148.5t-191.5 -48.5q-183 0 -297.5 162t-114.5 426t114.5 426t297.5 162q112 0 191.5 -48.5t131.5 -148.5v170 h166v-1546h-166v594z" />
<glyph unicode="r" horiz-adv-x="757" d="M758 948q-28 18 -61 26.5t-72 8.5q-141 0 -216 -101.5t-75 -291.5v-590h-167v1120h167v-174q52 102 136 151.5t203 49.5q17 0 38 -2.5t46 -7.5z" />
<glyph unicode="s" horiz-adv-x="960" d="M816 1087v-174q-70 40 -145.5 60t-156.5 20q-123 0 -185 -42t-62 -126q0 -64 44.5 -100.5t177.5 -69.5l56 -14q177 -42 251 -118.5t74 -213.5q0 -156 -111 -247t-305 -91q-81 0 -169 17.5t-185 52.5v190q92 -53 181 -79.5t176 -26.5q117 0 180 44.5t63 125.5 q0 75 -45.5 115t-199.5 77l-57 15q-154 36 -222.5 110.5t-68.5 204.5q0 158 101 244t286 86q92 0 173 -15t149 -45z" />
<glyph unicode="t" horiz-adv-x="722" d="M338 1438v-318h341v-143h-341v-608q0 -137 33.5 -176t136.5 -39h171v-154h-171q-191 0 -264 79.5t-73 289.5v608h-121v143h121v318h167z" />
<glyph unicode="u" horiz-adv-x="1168" d="M157 442v678h165v-671q0 -159 56 -238.5t167 -79.5q135 0 212.5 95t77.5 259v635h166v-1120h-166v172q-60 -102 -139.5 -151.5t-185.5 -49.5q-173 0 -263 120t-90 351zM573 1147z" />
<glyph unicode="v" horiz-adv-x="1090" d="M55 1120h175l315 -940l315 940h176l-378 -1120h-225z" />
<glyph unicode="w" horiz-adv-x="1507" d="M77 1120h166l207 -874l206 874h195l207 -874l206 874h166l-264 -1120h-195l-217 918l-218 -918h-195z" />
<glyph unicode="x" horiz-adv-x="1090" d="M1012 1120l-365 -545l383 -575h-195l-293 440l-294 -440h-195l392 586l-359 534h196l267 -399l267 399h196z" />
<glyph unicode="y" horiz-adv-x="1090" d="M593 -104q-70 -200 -136.5 -261t-178.5 -61h-132v154h97q68 0 106 36t84 170l30 84l-408 1102h175l315 -876l315 876h176z" />
<glyph unicode="z" horiz-adv-x="967" d="M102 1120h786v-168l-622 -805h622v-147h-809v168l623 805h-600v147z" />
<glyph unicode="{" horiz-adv-x="1172" d="M942 -190v-144h-56q-224 0 -300 74t-76 295v239q0 151 -48.5 209t-176.5 58h-55v143h55q129 0 177 57.5t48 206.5v240q0 221 76 294.5t300 73.5h56v-143h-61q-127 0 -165.5 -44t-38.5 -185v-248q0 -157 -41 -228t-140 -96q100 -27 140.5 -98t40.5 -227v-248 q0 -141 38.5 -185t165.5 -44h61z" />
<glyph unicode="|" horiz-adv-x="621" d="M387 1565v-2048h-153v2048h153z" />
<glyph unicode="}" horiz-adv-x="1172" d="M230 -190h63q126 0 164.5 43t38.5 186v248q0 156 40.5 227t140.5 98q-100 25 -140.5 96t-40.5 228v248q0 142 -38.5 185.5t-164.5 43.5h-63v143h57q224 0 299.5 -73.5t75.5 -294.5v-240q0 -149 48.5 -206.5t175.5 -57.5h56v-143h-56q-127 0 -175.5 -58t-48.5 -209v-239 q0 -221 -75.5 -295t-299.5 -74h-57v144z" />
<glyph unicode="~" d="M1349 817v-178q-94 -79 -174.5 -113t-168.5 -34q-99 0 -230 59l-15 6q-6 3 -19 8q-140 62 -224 62q-80 0 -157 -38.5t-166 -121.5v178q95 79 175.5 113.5t167.5 34.5q99 0 232 -60q8 -4 13 -6q7 -3 20 -8q139 -62 224 -62q77 0 153 38t169 122z" />
<glyph unicode="&#xa1;" horiz-adv-x="738" d="M461 1239h-183v254h183v-254zM461 0h-183v655l19 357h146l18 -357v-655z" />
<glyph unicode="&#xa2;" horiz-adv-x="1172" d="M610 131v856q-132 -18 -206 -131t-74 -297q0 -185 74 -298t206 -130zM953 1077v-172q-67 41 -128 62t-122 24l-1 -864q63 5 124.5 26t126.5 60v-170q-58 -30 -120 -47.5t-131 -24.5v-284h-92v288q-217 20 -336 173.5t-119 410.5q0 258 119 411t336 175v287h92l1 -287 q66 -4 127.5 -20.5t122.5 -47.5z" />
<glyph unicode="&#xa3;" horiz-adv-x="1172" d="M992 1460v-182q-69 41 -130 61.5t-116 20.5q-133 0 -185.5 -77.5t-52.5 -289.5v-215h352v-143h-352v-465h502v-170h-894v170h212v465h-179v143h179v238q0 261 96.5 382.5t305.5 121.5q55 0 123 -15.5t139 -44.5z" />
<glyph unicode="&#xa4;" horiz-adv-x="1172" d="M802 993l186 209l103 -115l-186 -206q34 -59 50 -118.5t16 -121.5q0 -63 -17 -120.5t-53 -114.5l188 -207l-103 -113l-186 207q-53 -40 -105 -59t-107 -19q-52 0 -106 18.5t-109 55.5l-187 -207l-101 115l186 206q-33 62 -50 121t-17 117q0 64 17 122t52 114l-187 206 l104 115l186 -207q50 39 102 57.5t110 18.5q54 0 106.5 -18t107.5 -56zM830 643q0 112 -70 189t-172 77q-101 0 -172 -77t-71 -189q0 -114 70.5 -192t172.5 -78q101 0 171.5 78.5t70.5 191.5z" />
<glyph unicode="&#xa5;" horiz-adv-x="1172" d="M1048 455h-371v-455h-181v455h-374v123h374v51l-76 155h-298v123h237l-285 586h171l341 -700l339 700h172l-286 -586h237v-123h-297l-76 -155v-51h373v-123z" />
<glyph unicode="&#xa6;" horiz-adv-x="621" d="M387 408v-758h-153v758h153zM387 1432v-758h-153v758h153z" />
<glyph unicode="&#xa7;" horiz-adv-x="921" d="M341 936q-57 -46 -84.5 -91t-27.5 -91q0 -76 62.5 -142.5t287.5 -201.5q56 45 84 90.5t28 91.5q0 75 -64.5 143t-285.5 201zM746 1462v-164q-75 39 -139 58.5t-115 19.5q-87 0 -135.5 -40t-48.5 -111q0 -90 185 -205q24 -15 36 -23q190 -119 249 -196t59 -178 q0 -90 -41.5 -160t-125.5 -123q56 -52 82 -106.5t26 -118.5q0 -142 -92 -226t-248 -84q-65 0 -134.5 14.5t-148.5 43.5v164q78 -39 144.5 -58.5t118.5 -19.5q92 0 143 42t51 118q0 102 -199 225l-22 14q-193 120 -250.5 196.5t-57.5 178.5q0 91 41.5 162.5t123.5 120.5 q-53 44 -79.5 100t-26.5 125q0 130 90 209.5t240 79.5q65 0 134 -14.5t140 -43.5z" />
<glyph unicode="&#xa8;" horiz-adv-x="921" d="M545 1552h183v-202h-183v202zM194 1552h182v-202h-182v202z" />
<glyph unicode="&#xa9;" horiz-adv-x="1843" d="M922 1485q136 0 254.5 -55t216.5 -164t146.5 -240t48.5 -285q0 -152 -48.5 -282.5t-146.5 -239.5t-216.5 -164t-254.5 -55q-137 0 -255.5 55t-216.5 164t-146.5 239.5t-48.5 282.5q0 154 48.5 285t146.5 240t216.5 164t255.5 55zM922 1382q-118 0 -220 -47t-186 -141 q-85 -94 -128 -208.5t-43 -244.5q0 -129 43 -242.5t128 -207.5q84 -94 186 -141.5t220 -47.5t220.5 47.5t186.5 141.5q84 93 126 206t42 244q0 133 -42.5 246.5t-125.5 206.5q-84 94 -186.5 141t-220.5 47zM1191 1137v-129q-60 33 -118.5 49t-117.5 16q-134 0 -209.5 -87.5 t-75.5 -244.5q0 -159 77 -246t217 -87q58 0 112.5 15.5t114.5 49.5v-127q-61 -29 -122.5 -43t-124.5 -14q-194 0 -307 122t-113 330q0 209 113 330t307 121q66 0 127 -14t120 -41z" />
<glyph unicode="&#xaa;" horiz-adv-x="868" d="M125 592h619v-123h-619v123zM742 1165v-448h-134v112q-39 -63 -104 -97t-148 -34q-116 0 -184 67.5t-68 180.5q0 135 85.5 204t255.5 69h163v4q0 91 -52.5 136.5t-157.5 45.5q-56 0 -117 -17t-123 -51v127q66 28 131.5 42t127.5 14q164 0 244.5 -88t80.5 -267zM494 1104 q-145 0 -201.5 -33.5t-56.5 -112.5q0 -64 44 -102.5t118 -38.5q93 0 151.5 72t58.5 186v29h-114z" />
<glyph unicode="&#xab;" horiz-adv-x="1127" d="M955 1059v-191l-271 -268l271 -268v-191l-422 418v82zM564 1059v-191l-271 -268l271 -268v-191l-422 418v82z" />
<glyph unicode="&#xac;" d="M195 862h1154v-575h-151v405h-1003v170z" />
<glyph unicode="&#xad;" horiz-adv-x="665" d="M90 643h485v-164h-485v164z" />
<glyph unicode="&#xae;" horiz-adv-x="1843" d="M922 1382q-118 0 -220 -47t-186 -141q-85 -94 -128 -208.5t-43 -244.5q0 -129 43 -242.5t128 -207.5q84 -94 186 -141.5t220 -47.5t220.5 47.5t186.5 141.5q84 93 126 206t42 244q0 133 -42.5 246.5t-125.5 206.5q-84 94 -186.5 141t-220.5 47zM922 1485q136 0 254.5 -55 t216.5 -164t146.5 -240t48.5 -285q0 -152 -48.5 -282.5t-146.5 -239.5t-216.5 -164t-254.5 -55q-137 0 -255.5 55t-216.5 164t-146.5 239.5t-48.5 282.5q0 154 48.5 285t146.5 240t216.5 164t255.5 55zM897 1071h-110v-276h110q99 0 138.5 31t39.5 106q0 76 -40 107.5 t-138 31.5zM904 1174q158 0 236.5 -59.5t78.5 -180.5q0 -86 -47.5 -142t-133.5 -73q21 -8 51.5 -46.5t71.5 -111.5l123 -223h-154l-117 209q-53 96 -85.5 121.5t-81.5 25.5h-59v-356h-140v836h257z" />
<glyph unicode="&#xaf;" horiz-adv-x="921" d="M192 1526h538v-148h-538v148z" />
<glyph unicode="&#xb0;" horiz-adv-x="921" d="M461 1391q-72 0 -121.5 -55.5t-49.5 -135.5q0 -79 49.5 -133.5t121.5 -54.5t121.5 54.5t49.5 133.5t-50 135t-121 56zM461 1520q57 0 110.5 -24.5t91.5 -70.5q42 -45 62.5 -102t20.5 -123q0 -132 -83 -223.5t-204 -91.5t-202 90t-81 225q0 134 82.5 227t202.5 93z" />
<glyph unicode="&#xb1;" d="M848 1284v-387h501v-170h-501v-387h-151v387h-502v170h502v387h151zM195 170h1154v-170h-1154v170z" />
<glyph unicode="&#xb2;" horiz-adv-x="738" d="M241 782h382v-114h-538v110q30 31 87 87q310 305 310 399q0 66 -47 106.5t-124 40.5q-46 0 -101 -17.5t-120 -52.5v123q69 28 129 42t111 14q131 0 209 -66t78 -174q0 -139 -297 -423q-51 -48 -79 -75z" />
<glyph unicode="&#xb3;" horiz-adv-x="738" d="M472 1120q82 -18 127.5 -72.5t45.5 -136.5q0 -124 -85.5 -191t-244.5 -67q-51 0 -107.5 10.5t-119.5 30.5v121q47 -27 100.5 -40t113.5 -13q98 0 152 39.5t54 109.5q0 74 -49.5 112t-147.5 38h-77v108h85q84 0 127.5 31.5t43.5 91.5q0 58 -45 88.5t-130 30.5 q-36 0 -82 -9t-119 -32v115q66 17 123.5 26t107.5 9q129 0 205 -59t76 -158q0 -69 -40.5 -117t-113.5 -66z" />
<glyph unicode="&#xb4;" horiz-adv-x="921" d="M586 1638h179l-293 -376h-138z" />
<glyph unicode="&#xb5;" horiz-adv-x="1172" d="M157 -426v1546h165v-696q0 -145 62 -219t184 -74q133 0 200 84t67 252v653h166v-862q0 -60 15.5 -88.5t49.5 -28.5q8 0 22 5.5t40 17.5v-148q-37 -23 -70 -34t-64 -11q-62 0 -99 39t-51 119q-45 -79 -110 -118.5t-154 -39.5q-91 0 -155.5 39t-102.5 117v-553h-165z" />
<glyph unicode="&#xb6;" horiz-adv-x="1172" d="M570 1493h403v-1690h-127v1567h-171v-1567h-128v846q-193 17 -299 127.5t-106 294.5q0 190 117 306t311 116z" />
<glyph unicode="&#xb7;" horiz-adv-x="585" d="M197 838h190v-254h-190v254z" />
<glyph unicode="&#xb8;" horiz-adv-x="921" d="M536 0q50 -62 74 -114.5t24 -100.5q0 -89 -54 -134.5t-160 -45.5q-41 0 -80 6t-78 18v131q30 -17 63.5 -24.5t75.5 -7.5q53 0 80 24t27 70q0 30 -19 73.5t-60 104.5h107z" />
<glyph unicode="&#xb9;" horiz-adv-x="738" d="M140 778h184v611l-201 -41v116l207 39h124v-725h184v-110h-498v110z" />
<glyph unicode="&#xba;" horiz-adv-x="868" d="M125 592h619v-123h-619v123zM435 1520q161 0 253.5 -110.5t92.5 -301.5t-92.5 -300.5t-253.5 -109.5t-255 110t-94 300q0 191 94 301.5t255 110.5zM435 1405q-95 0 -151.5 -80.5t-56.5 -216.5q0 -133 57 -213t151 -80t150.5 80t56.5 213q0 137 -56 217t-151 80z" />
<glyph unicode="&#xbb;" horiz-adv-x="1127" d="M174 1059l422 -418v-82l-422 -418v191l271 268l-271 268v191zM564 1059l422 -418v-82l-422 -418v191l271 268l-271 268v191z" />
<glyph unicode="&#xbc;" horiz-adv-x="1786" d="M123 0zM140 778h184v611l-201 -41v116l207 39h124v-725h184v-110h-498v110zM1476 714l-278 -419h278v419zM1457 835h149v-540h121v-109h-121v-186h-130v186h-372v121zM1240 1520h144l-839 -1549h-144z" />
<glyph unicode="&#xbd;" horiz-adv-x="1786" d="M123 0zM140 778h184v611l-201 -41v116l207 39h124v-725h184v-110h-498v110zM1288 114h382v-114h-538v110q30 31 87 87q310 305 310 399q0 66 -47 106.5t-124 40.5q-46 0 -101 -17.5t-120 -52.5v123q69 28 129 42t111 14q131 0 209 -66t78 -174q0 -139 -297 -423 q-51 -48 -79 -75zM1240 1520h144l-839 -1549h-144z" />
<glyph unicode="&#xbe;" horiz-adv-x="1786" d="M88 0zM472 1120q82 -18 127.5 -72.5t45.5 -136.5q0 -124 -85.5 -191t-244.5 -67q-51 0 -107.5 10.5t-119.5 30.5v121q47 -27 100.5 -40t113.5 -13q98 0 152 39.5t54 109.5q0 74 -49.5 112t-147.5 38h-77v108h85q84 0 127.5 31.5t43.5 91.5q0 58 -45 88.5t-130 30.5 q-36 0 -82 -9t-119 -32v115q66 17 123.5 26t107.5 9q129 0 205 -59t76 -158q0 -69 -40.5 -117t-113.5 -66zM1476 714l-278 -419h278v419zM1457 835h149v-540h121v-109h-121v-186h-130v186h-372v121zM1240 1520h144l-839 -1549h-144z" />
<glyph unicode="&#xbf;" horiz-adv-x="978" d="M450 1092h171v-156q0 -101 -24.5 -166t-106.5 -152l-80 -88q-53 -53 -76 -100t-23 -96q0 -89 59 -144t157 -55q71 0 152 35t167 102v-188q-85 -57 -171 -85t-179 -28q-166 0 -266.5 97t-100.5 256q0 76 32.5 144.5t112.5 154.5l80 86q43 47 60 73.5t24 51.5q7 21 9.5 51 t2.5 84v123zM626 1239h-181v254h181v-254z" />
<glyph unicode="&#xc0;" horiz-adv-x="1260" d="M14 0zM630 1294l-247 -743h495zM527 1493h207l512 -1493h-189l-123 383h-606l-122 -383h-192zM579 1899l176 -264h-137l-207 264h168z" />
<glyph unicode="&#xc1;" horiz-adv-x="1260" d="M14 0zM630 1294l-247 -743h495zM527 1493h207l512 -1493h-189l-123 383h-606l-122 -383h-192zM680 1899h166l-205 -264h-138z" />
<glyph unicode="&#xc2;" horiz-adv-x="1260" d="M14 0zM630 1294l-247 -743h495zM527 1493h207l512 -1493h-189l-123 383h-606l-122 -383h-192zM546 1901h169l190 -266h-125l-150 178l-149 -178h-125z" />
<glyph unicode="&#xc3;" horiz-adv-x="1260" d="M14 0zM630 1294l-247 -743h495zM527 1493h207l512 -1493h-189l-123 383h-606l-122 -383h-192zM627 1710l-52 33q-22 14 -36 19.5t-25 5.5q-32 0 -50 -25t-18 -70v-6h-113q0 101 46.5 160t123.5 59q33 0 60.5 -8t70.5 -35l51 -30q21 -13 36 -19t29 -6q29 0 47 25.5 t18 66.5v6h112q-2 -100 -48 -159.5t-122 -59.5q-30 0 -57 8t-73 35z" />
<glyph unicode="&#xc4;" horiz-adv-x="1260" d="M14 0zM630 1294l-247 -743h495zM527 1493h207l512 -1493h-189l-123 383h-606l-122 -383h-192zM715 1870h182v-203h-182v203zM363 1870h183v-203h-183v203z" />
<glyph unicode="&#xc5;" horiz-adv-x="1260" d="M767 1626q0 63 -40 107.5t-97 44.5q-58 0 -97 -43.5t-39 -108.5q0 -63 39.5 -107t96.5 -44t97 44t40 107zM630 1294l-245 -743h491zM494 1397q-55 41 -83 98.5t-28 130.5q0 115 71.5 195t175.5 80q103 0 175.5 -80.5t72.5 -194.5q0 -70 -28.5 -129t-82.5 -100l479 -1397 h-189l-123 383h-606l-122 -383h-192z" />
<glyph unicode="&#xc6;" horiz-adv-x="1795" d="M1660 1493v-170h-666v-442h640v-170h-640v-541h684v-170h-867v383h-475l-144 -383h-185l563 1493h1090zM695 1335l-297 -784h413v784h-116z" />
<glyph unicode="&#xc7;" horiz-adv-x="1287" d="M104 0zM1187 1378v-213q-92 95 -196 142t-221 47q-230 0 -352.5 -156.5t-122.5 -452.5q0 -295 122.5 -451.5t352.5 -156.5q117 0 221 47t196 142v-211q-95 -72 -202 -108t-225 -36q-306 0 -481 207.5t-175 566.5q0 360 175 567.5t481 207.5q120 0 227 -35.5t200 -106.5z M807 0q50 -62 74 -114.5t24 -100.5q0 -89 -54 -134.5t-160 -45.5q-41 0 -80 6t-78 18v131q30 -17 63.5 -24.5t75.5 -7.5q53 0 80 24t27 70q0 30 -19 73.5t-60 104.5h107z" />
<glyph unicode="&#xc8;" horiz-adv-x="1164" d="M181 0zM181 1493h849v-170h-667v-442h640v-170h-640v-541h684v-170h-866v1493zM552 1899l176 -264h-137l-207 264h168z" />
<glyph unicode="&#xc9;" horiz-adv-x="1164" d="M181 0zM181 1493h849v-170h-667v-442h640v-170h-640v-541h684v-170h-866v1493zM653 1899h166l-205 -264h-138z" />
<glyph unicode="&#xca;" horiz-adv-x="1164" d="M181 0zM181 1493h849v-170h-667v-442h640v-170h-640v-541h684v-170h-866v1493zM519 1901h169l190 -266h-125l-150 178l-149 -178h-125z" />
<glyph unicode="&#xcb;" horiz-adv-x="1164" d="M181 0zM181 1493h849v-170h-667v-442h640v-170h-640v-541h684v-170h-866v1493zM688 1870h182v-203h-182v203zM336 1870h183v-203h-183v203z" />
<glyph unicode="&#xcc;" horiz-adv-x="543" d="M54 0zM181 1493h182v-1493h-182v1493zM222 1899l176 -264h-137l-207 264h168z" />
<glyph unicode="&#xcd;" horiz-adv-x="543" d="M146 0zM181 1493h182v-1493h-182v1493zM323 1899h166l-205 -264h-138z" />
<glyph unicode="&#xce;" horiz-adv-x="543" d="M0 0zM181 1493h182v-1493h-182v1493zM189 1901h169l190 -266h-125l-150 178l-149 -178h-125z" />
<glyph unicode="&#xcf;" horiz-adv-x="543" d="M6 0zM181 1493h182v-1493h-182v1493zM358 1870h182v-203h-182v203zM6 1870h183v-203h-183v203z" />
<glyph unicode="&#xd0;" horiz-adv-x="1428" d="M190 1493h374q390 0 572.5 -180.5t182.5 -564.5q0 -386 -183 -567t-572 -181h-374v700h-181v144h181v649zM373 1327v-483h302v-144h-302v-534h218q278 0 407.5 140t129.5 442q0 300 -129.5 439.5t-407.5 139.5h-218z" />
<glyph unicode="&#xd1;" horiz-adv-x="1378" d="M181 0zM181 1493h245l596 -1249v1249h176v-1493h-245l-596 1249v-1249h-176v1493zM686 1710l-52 33q-22 14 -36 19.5t-25 5.5q-32 0 -50 -25t-18 -70v-6h-113q0 101 46.5 160t123.5 59q33 0 60.5 -8t70.5 -35l51 -30q21 -13 36 -19t29 -6q29 0 47 25.5t18 66.5v6h112 q-2 -100 -48 -159.5t-122 -59.5q-30 0 -57 8t-73 35z" />
<glyph unicode="&#xd2;" horiz-adv-x="1450" d="M104 0zM726 1356q-198 0 -314.5 -164t-116.5 -447q0 -282 116.5 -446t314.5 -164t314 164t116 446q0 283 -116 447t-314 164zM726 1520q283 0 452 -210.5t169 -564.5q0 -353 -169 -563.5t-452 -210.5t-452.5 210t-169.5 564t169.5 564.5t452.5 210.5zM675 1899l176 -264 h-137l-207 264h168z" />
<glyph unicode="&#xd3;" horiz-adv-x="1450" d="M104 0zM726 1356q-198 0 -314.5 -164t-116.5 -447q0 -282 116.5 -446t314.5 -164t314 164t116 446q0 283 -116 447t-314 164zM726 1520q283 0 452 -210.5t169 -564.5q0 -353 -169 -563.5t-452 -210.5t-452.5 210t-169.5 564t169.5 564.5t452.5 210.5zM776 1899h166 l-205 -264h-138z" />
<glyph unicode="&#xd4;" horiz-adv-x="1450" d="M104 0zM726 1356q-198 0 -314.5 -164t-116.5 -447q0 -282 116.5 -446t314.5 -164t314 164t116 446q0 283 -116 447t-314 164zM726 1520q283 0 452 -210.5t169 -564.5q0 -353 -169 -563.5t-452 -210.5t-452.5 210t-169.5 564t169.5 564.5t452.5 210.5zM642 1901h169 l190 -266h-125l-150 178l-149 -178h-125z" />
<glyph unicode="&#xd5;" horiz-adv-x="1450" d="M104 0zM726 1356q-198 0 -314.5 -164t-116.5 -447q0 -282 116.5 -446t314.5 -164t314 164t116 446q0 283 -116 447t-314 164zM726 1520q283 0 452 -210.5t169 -564.5q0 -353 -169 -563.5t-452 -210.5t-452.5 210t-169.5 564t169.5 564.5t452.5 210.5zM723 1710l-52 33 q-22 14 -36 19.5t-25 5.5q-32 0 -50 -25t-18 -70v-6h-113q0 101 46.5 160t123.5 59q33 0 60.5 -8t70.5 -35l51 -30q21 -13 36 -19t29 -6q29 0 47 25.5t18 66.5v6h112q-2 -100 -48 -159.5t-122 -59.5q-30 0 -57 8t-73 35z" />
<glyph unicode="&#xd6;" horiz-adv-x="1450" d="M104 0zM726 1356q-198 0 -314.5 -164t-116.5 -447q0 -282 116.5 -446t314.5 -164t314 164t116 446q0 283 -116 447t-314 164zM726 1520q283 0 452 -210.5t169 -564.5q0 -353 -169 -563.5t-452 -210.5t-452.5 210t-169.5 564t169.5 564.5t452.5 210.5zM811 1870h182v-203 h-182v203zM459 1870h183v-203h-183v203z" />
<glyph unicode="&#xd7;" d="M1292 1100l-411 -459l411 -457l-107 -121l-413 459l-413 -459l-106 121l410 457l-410 459l106 121l413 -459l413 459z" />
<glyph unicode="&#xd8;" horiz-adv-x="1450" d="M1085 1112l-645 -846q56 -64 128.5 -97.5t157.5 -33.5q198 0 314 164t116 446q0 112 -18 204t-53 163zM1012 1225q-55 64 -127.5 97.5t-158.5 33.5q-198 0 -314.5 -164t-116.5 -447q0 -112 17.5 -206t52.5 -162zM245 219q-70 102 -105.5 234t-35.5 292q0 354 169.5 564.5 t452.5 210.5q117 0 216.5 -38.5t177.5 -113.5l146 191l92 -89l-153 -198q70 -103 106 -236t36 -291q0 -353 -169 -563.5t-452 -210.5q-115 0 -214.5 37.5t-181.5 112.5l-146 -191l-92 88z" />
<glyph unicode="&#xd9;" horiz-adv-x="1349" d="M160 0zM160 1493h183v-907q0 -240 78.5 -345.5t253.5 -105.5t253 105.5t78 345.5v907h183v-932q0 -292 -130 -441t-384 -149q-255 0 -385 149t-130 441v932zM624 1899l176 -264h-137l-207 264h168z" />
<glyph unicode="&#xda;" horiz-adv-x="1349" d="M160 0zM160 1493h183v-907q0 -240 78.5 -345.5t253.5 -105.5t253 105.5t78 345.5v907h183v-932q0 -292 -130 -441t-384 -149q-255 0 -385 149t-130 441v932zM725 1899h166l-205 -264h-138z" />
<glyph unicode="&#xdb;" horiz-adv-x="1349" d="M160 0zM160 1493h183v-907q0 -240 78.5 -345.5t253.5 -105.5t253 105.5t78 345.5v907h183v-932q0 -292 -130 -441t-384 -149q-255 0 -385 149t-130 441v932zM591 1901h169l190 -266h-125l-150 178l-149 -178h-125z" />
<glyph unicode="&#xdc;" horiz-adv-x="1349" d="M160 0zM160 1493h183v-907q0 -240 78.5 -345.5t253.5 -105.5t253 105.5t78 345.5v907h183v-932q0 -292 -130 -441t-384 -149q-255 0 -385 149t-130 441v932zM760 1870h182v-203h-182v203zM408 1870h183v-203h-183v203z" />
<glyph unicode="&#xdd;" horiz-adv-x="1125" d="M0 0zM-4 1493h196l372 -614l370 614h196l-476 -782v-711h-182v711zM614 1899h166l-205 -264h-138z" />
<glyph unicode="&#xde;" horiz-adv-x="1115" d="M181 1493h182v-264h228q226 0 341.5 -112.5t115.5 -332.5t-115.5 -333t-341.5 -113h-228v-338h-182v1493zM363 1063v-559h228q127 0 196.5 73t69.5 207t-69 206.5t-197 72.5h-228z" />
<glyph unicode="&#xdf;" horiz-adv-x="1161" d="M167 1137q0 200 107.5 309.5t304.5 109.5q187 0 285.5 -116t101.5 -340q-136 -8 -211.5 -65.5t-75.5 -153.5q0 -47 26 -87.5t84 -82.5l52 -37q149 -106 192 -177t43 -171q0 -172 -101 -263.5t-291 -91.5q-58 0 -119 12.5t-127 36.5v164q72 -30 135 -44.5t122 -14.5 q104 0 158 47.5t54 138.5q0 63 -26.5 105t-117.5 104l-83 55q-86 59 -125 126.5t-39 158.5q0 127 75 213t211 115q-7 103 -66 159t-161 56q-117 0 -178 -69.5t-61 -200.5v-1133h-169v1137z" />
<glyph unicode="&#xe0;" horiz-adv-x="1129" d="M111 0zM632 563q-201 0 -278.5 -51t-77.5 -174q0 -98 58 -155.5t158 -57.5q138 0 221 108.5t83 288.5v41h-164zM962 639v-639h-166v170q-56 -102 -140.5 -150.5t-207.5 -48.5q-155 0 -246 96.5t-91 258.5q0 189 113.5 285t339.5 96h232v18q0 127 -75 196.5t-211 69.5 q-86 0 -168 -23t-158 -69v170q91 39 176.5 58.5t166.5 19.5q219 0 327 -126t108 -382zM404 1638l254 -374h-138l-293 374h177z" />
<glyph unicode="&#xe1;" horiz-adv-x="1129" d="M111 0zM632 563q-201 0 -278.5 -51t-77.5 -174q0 -98 58 -155.5t158 -57.5q138 0 221 108.5t83 288.5v41h-164zM962 639v-639h-166v170q-56 -102 -140.5 -150.5t-207.5 -48.5q-155 0 -246 96.5t-91 258.5q0 189 113.5 285t339.5 96h232v18q0 127 -75 196.5t-211 69.5 q-86 0 -168 -23t-158 -69v170q91 39 176.5 58.5t166.5 19.5q219 0 327 -126t108 -382zM660 1638h179l-293 -376h-138z" />
<glyph unicode="&#xe2;" horiz-adv-x="1129" d="M111 0zM632 563q-201 0 -278.5 -51t-77.5 -174q0 -98 58 -155.5t158 -57.5q138 0 221 108.5t83 288.5v41h-164zM962 639v-639h-166v170q-56 -102 -140.5 -150.5t-207.5 -48.5q-155 0 -246 96.5t-91 258.5q0 189 113.5 285t339.5 96h232v18q0 127 -75 196.5t-211 69.5 q-86 0 -168 -23t-158 -69v170q91 39 176.5 58.5t166.5 19.5q219 0 327 -126t108 -382zM468 1638h133l221 -376h-125l-162 245l-162 -245h-125z" />
<glyph unicode="&#xe3;" horiz-adv-x="1129" d="M111 0zM632 563q-201 0 -278.5 -51t-77.5 -174q0 -98 58 -155.5t158 -57.5q138 0 221 108.5t83 288.5v41h-164zM962 639v-639h-166v170q-56 -102 -140.5 -150.5t-207.5 -48.5q-155 0 -246 96.5t-91 258.5q0 189 113.5 285t339.5 96h232v18q0 127 -75 196.5t-211 69.5 q-86 0 -168 -23t-158 -69v170q91 39 176.5 58.5t166.5 19.5q219 0 327 -126t108 -382zM531 1370l-51 55q-20 20 -35 29.5t-26 9.5q-35 0 -51 -36.5t-18 -118.5h-112q2 135 47.5 208.5t127.5 73.5q35 0 63.5 -14t61.5 -47l52 -55q20 -20 34.5 -29.5t26.5 -9.5q34 0 50.5 36.5 t17.5 118.5h113q-2 -135 -48 -208.5t-128 -73.5q-34 0 -63 14t-62 47z" />
<glyph unicode="&#xe4;" horiz-adv-x="1129" d="M111 0zM632 563q-201 0 -278.5 -51t-77.5 -174q0 -98 58 -155.5t158 -57.5q138 0 221 108.5t83 288.5v41h-164zM962 639v-639h-166v170q-56 -102 -140.5 -150.5t-207.5 -48.5q-155 0 -246 96.5t-91 258.5q0 189 113.5 285t339.5 96h232v18q0 127 -75 196.5t-211 69.5 q-86 0 -168 -23t-158 -69v170q91 39 176.5 58.5t166.5 19.5q219 0 327 -126t108 -382zM619 1552h183v-202h-183v202zM268 1552h182v-202h-182v202z" />
<glyph unicode="&#xe5;" horiz-adv-x="1129" d="M111 0zM632 563q-201 0 -278.5 -51t-77.5 -174q0 -98 58 -155.5t158 -57.5q138 0 221 108.5t83 288.5v41h-164zM962 639v-639h-166v170q-56 -102 -140.5 -150.5t-207.5 -48.5q-155 0 -246 96.5t-91 258.5q0 189 113.5 285t339.5 96h232v18q0 127 -75 196.5t-211 69.5 q-86 0 -168 -23t-158 -69v170q91 39 176.5 58.5t166.5 19.5q219 0 327 -126t108 -382zM672 1524q0 63 -40 107t-97 44q-59 0 -98 -43.5t-39 -107.5q0 -65 39 -108.5t98 -43.5q57 0 97 44t40 108zM781 1524q0 -115 -71.5 -195t-174.5 -80q-104 0 -175.5 80t-71.5 195 t71.5 194.5t175.5 79.5q103 0 174.5 -79.5t71.5 -194.5z" />
<glyph unicode="&#xe6;" horiz-adv-x="1809" d="M1546 660q-1 151 -75 241t-197 90q-138 0 -221.5 -87t-95.5 -245zM896 963q66 90 161.5 137t214.5 47q203 0 322 -145.5t119 -395.5v-90h-762q11 -191 103 -291t256 -100q94 0 184 26.5t180 79.5v-174q-90 -42 -183.5 -64t-189.5 -22q-150 0 -261.5 60.5t-180.5 179.5 q-66 -120 -163.5 -180t-225.5 -60q-170 0 -264.5 93.5t-94.5 261.5q0 189 113.5 285t339.5 96h232v18q0 127 -75 196.5t-211 69.5q-86 0 -168 -23t-158 -69v170q91 39 176.5 58.5t166.5 19.5q128 0 224 -48t145 -136zM632 563q-201 0 -278.5 -51t-77.5 -174q0 -98 58 -155.5 t158 -57.5q138 0 221 108.5t83 288.5v41h-164z" />
<glyph unicode="&#xe7;" horiz-adv-x="1013" d="M102 0zM899 1077v-172q-70 43 -140.5 64.5t-142.5 21.5q-162 0 -251 -113.5t-89 -318.5t89 -318.5t251 -113.5q72 0 142.5 21.5t140.5 64.5v-170q-69 -36 -143.5 -54t-157.5 -18q-228 0 -362 159t-134 429q0 274 135.5 431t370.5 157q77 0 150 -17.5t141 -52.5zM665 0 q50 -62 74 -114.5t24 -100.5q0 -89 -54 -134.5t-160 -45.5q-41 0 -80 6t-78 18v131q30 -17 63.5 -24.5t75.5 -7.5q53 0 80 24t27 70q0 30 -19 73.5t-60 104.5h107z" />
<glyph unicode="&#xe8;" horiz-adv-x="1134" d="M102 0zM1036 606v-90h-762q11 -190 103.5 -289.5t256.5 -99.5q96 0 185.5 26t177.5 78v-174q-89 -42 -182.5 -64t-189.5 -22q-242 0 -382.5 156t-140.5 422q0 275 133.5 436.5t360.5 161.5q203 0 321.5 -145.5t118.5 -395.5zM870 660q-2 151 -76 241t-196 90 q-139 0 -222.5 -87t-95.5 -245zM455 1638l254 -374h-138l-293 374h177z" />
<glyph unicode="&#xe9;" horiz-adv-x="1134" d="M102 0zM1036 606v-90h-762q11 -190 103.5 -289.5t256.5 -99.5q96 0 185.5 26t177.5 78v-174q-89 -42 -182.5 -64t-189.5 -22q-242 0 -382.5 156t-140.5 422q0 275 133.5 436.5t360.5 161.5q203 0 321.5 -145.5t118.5 -395.5zM870 660q-2 151 -76 241t-196 90 q-139 0 -222.5 -87t-95.5 -245zM711 1638h179l-293 -376h-138z" />
<glyph unicode="&#xea;" horiz-adv-x="1134" d="M102 0zM1036 606v-90h-762q11 -190 103.5 -289.5t256.5 -99.5q96 0 185.5 26t177.5 78v-174q-89 -42 -182.5 -64t-189.5 -22q-242 0 -382.5 156t-140.5 422q0 275 133.5 436.5t360.5 161.5q203 0 321.5 -145.5t118.5 -395.5zM870 660q-2 151 -76 241t-196 90 q-139 0 -222.5 -87t-95.5 -245zM519 1638h133l221 -376h-125l-162 245l-162 -245h-125z" />
<glyph unicode="&#xeb;" horiz-adv-x="1134" d="M102 0zM1036 606v-90h-762q11 -190 103.5 -289.5t256.5 -99.5q96 0 185.5 26t177.5 78v-174q-89 -42 -182.5 -64t-189.5 -22q-242 0 -382.5 156t-140.5 422q0 275 133.5 436.5t360.5 161.5q203 0 321.5 -145.5t118.5 -395.5zM870 660q-2 151 -76 241t-196 90 q-139 0 -222.5 -87t-95.5 -245zM670 1552h183v-202h-183v202zM319 1552h182v-202h-182v202z" />
<glyph unicode="&#xec;" horiz-adv-x="512" d="M0 0zM126 1638l254 -374h-138l-293 374h177zM174 1120h165v-1120h-165v1120zM256 1147z" />
<glyph unicode="&#xed;" horiz-adv-x="512" d="M130 0zM382 1638h179l-293 -376h-138zM174 1120h165v-1120h-165v1120zM256 1147z" />
<glyph unicode="&#xee;" horiz-adv-x="512" d="M0 0zM174 1120h165v-1120h-165v1120zM256 1147zM190 1638h133l221 -376h-125l-162 245l-162 -245h-125z" />
<glyph unicode="&#xef;" horiz-adv-x="512" d="M0 0zM174 1120h165v-1120h-165v1120zM256 1147zM341 1552h183v-202h-183v202zM-10 1552h182v-202h-182v202z" />
<glyph unicode="&#xf0;" horiz-adv-x="1127" d="M754 915q-45 17 -84.5 25t-76.5 8q-150 0 -233.5 -108t-83.5 -303q0 -188 78.5 -299t209.5 -111t209 111t78 299q0 122 -24 216t-73 162zM811 1141q113 -143 164.5 -287t51.5 -317q0 -255 -128 -410.5t-335 -155.5q-208 0 -335 155.5t-127 410.5q0 250 124 405.5 t323 155.5q16 0 39.5 -2.5t61.5 -7.5l-143 180l-287 -107l-30 99l253 92l-163 204h205l114 -145l300 111l30 -97l-266 -98z" />
<glyph unicode="&#xf1;" horiz-adv-x="1168" d="M167 0zM1012 676v-676h-166v670q0 159 -56 238t-167 79q-134 0 -211.5 -95t-77.5 -259v-633h-167v1120h167v-174q59 101 139.5 151t186.5 50q173 0 262.5 -119.5t89.5 -351.5zM594 1370l-51 55q-20 20 -35 29.5t-26 9.5q-35 0 -51 -36.5t-18 -118.5h-112 q2 135 47.5 208.5t127.5 73.5q35 0 63.5 -14t61.5 -47l52 -55q20 -20 34.5 -29.5t26.5 -9.5q34 0 50.5 36.5t17.5 118.5h113q-2 -135 -48 -208.5t-128 -73.5q-34 0 -63 14t-62 47z" />
<glyph unicode="&#xf2;" horiz-adv-x="1127" d="M102 0zM564 991q-133 0 -210.5 -115.5t-77.5 -316.5t77 -316.5t211 -115.5q133 0 210 116t77 316q0 199 -77 315.5t-210 116.5zM564 1147q216 0 339.5 -156t123.5 -432q0 -275 -123.5 -431.5t-339.5 -156.5q-217 0 -339.5 156.5t-122.5 431.5q0 276 122.5 432t339.5 156z M434 1638l254 -374h-138l-293 374h177z" />
<glyph unicode="&#xf3;" horiz-adv-x="1127" d="M102 0zM564 991q-133 0 -210.5 -115.5t-77.5 -316.5t77 -316.5t211 -115.5q133 0 210 116t77 316q0 199 -77 315.5t-210 116.5zM564 1147q216 0 339.5 -156t123.5 -432q0 -275 -123.5 -431.5t-339.5 -156.5q-217 0 -339.5 156.5t-122.5 431.5q0 276 122.5 432t339.5 156z M690 1638h179l-293 -376h-138z" />
<glyph unicode="&#xf4;" horiz-adv-x="1127" d="M102 0zM564 991q-133 0 -210.5 -115.5t-77.5 -316.5t77 -316.5t211 -115.5q133 0 210 116t77 316q0 199 -77 315.5t-210 116.5zM564 1147q216 0 339.5 -156t123.5 -432q0 -275 -123.5 -431.5t-339.5 -156.5q-217 0 -339.5 156.5t-122.5 431.5q0 276 122.5 432t339.5 156z M498 1638h133l221 -376h-125l-162 245l-162 -245h-125z" />
<glyph unicode="&#xf5;" horiz-adv-x="1127" d="M102 0zM564 991q-133 0 -210.5 -115.5t-77.5 -316.5t77 -316.5t211 -115.5q133 0 210 116t77 316q0 199 -77 315.5t-210 116.5zM564 1147q216 0 339.5 -156t123.5 -432q0 -275 -123.5 -431.5t-339.5 -156.5q-217 0 -339.5 156.5t-122.5 431.5q0 276 122.5 432t339.5 156z M561 1370l-51 55q-20 20 -35 29.5t-26 9.5q-35 0 -51 -36.5t-18 -118.5h-112q2 135 47.5 208.5t127.5 73.5q35 0 63.5 -14t61.5 -47l52 -55q20 -20 34.5 -29.5t26.5 -9.5q34 0 50.5 36.5t17.5 118.5h113q-2 -135 -48 -208.5t-128 -73.5q-34 0 -63 14t-62 47z" />
<glyph unicode="&#xf6;" horiz-adv-x="1127" d="M102 0zM564 991q-133 0 -210.5 -115.5t-77.5 -316.5t77 -316.5t211 -115.5q133 0 210 116t77 316q0 199 -77 315.5t-210 116.5zM564 1147q216 0 339.5 -156t123.5 -432q0 -275 -123.5 -431.5t-339.5 -156.5q-217 0 -339.5 156.5t-122.5 431.5q0 276 122.5 432t339.5 156z M649 1552h183v-202h-183v202zM298 1552h182v-202h-182v202z" />
<glyph unicode="&#xf7;" d="M662 1135h221v-246h-221v246zM662 395h221v-245h-221v245zM195 727h1154v-170h-1154v170z" />
<glyph unicode="&#xf8;" horiz-adv-x="1127" d="M814 801l-438 -592q37 -42 83.5 -62t104.5 -20q133 0 210 116t77 316q0 79 -9 137.5t-28 104.5zM751 909q-38 41 -84.5 61.5t-102.5 20.5q-136 0 -212 -117.5t-76 -328.5q0 -72 8.5 -127t26.5 -101zM199 166q-49 77 -73 175.5t-24 217.5q0 276 122.5 432t339.5 156 q84 0 155.5 -25.5t131.5 -77.5l125 168l86 -79l-131 -179q47 -77 71.5 -176t24.5 -219q0 -275 -123.5 -431.5t-339.5 -156.5q-86 0 -158.5 26t-129.5 77l-125 -168l-86 78z" />
<glyph unicode="&#xf9;" horiz-adv-x="1168" d="M157 0zM157 442v678h165v-671q0 -159 56 -238.5t167 -79.5q135 0 212.5 95t77.5 259v635h166v-1120h-166v172q-60 -102 -139.5 -151.5t-185.5 -49.5q-173 0 -263 120t-90 351zM573 1147zM441 1638l254 -374h-138l-293 374h177z" />
<glyph unicode="&#xfa;" horiz-adv-x="1168" d="M157 0zM157 442v678h165v-671q0 -159 56 -238.5t167 -79.5q135 0 212.5 95t77.5 259v635h166v-1120h-166v172q-60 -102 -139.5 -151.5t-185.5 -49.5q-173 0 -263 120t-90 351zM573 1147zM697 1638h179l-293 -376h-138z" />
<glyph unicode="&#xfb;" horiz-adv-x="1168" d="M157 0zM157 442v678h165v-671q0 -159 56 -238.5t167 -79.5q135 0 212.5 95t77.5 259v635h166v-1120h-166v172q-60 -102 -139.5 -151.5t-185.5 -49.5q-173 0 -263 120t-90 351zM573 1147zM505 1638h133l221 -376h-125l-162 245l-162 -245h-125z" />
<glyph unicode="&#xfc;" horiz-adv-x="1168" d="M157 0zM157 442v678h165v-671q0 -159 56 -238.5t167 -79.5q135 0 212.5 95t77.5 259v635h166v-1120h-166v172q-60 -102 -139.5 -151.5t-185.5 -49.5q-173 0 -263 120t-90 351zM573 1147zM656 1552h183v-202h-183v202zM305 1552h182v-202h-182v202z" />
<glyph unicode="&#xfd;" horiz-adv-x="1090" d="M55 0zM593 -104q-70 -200 -136.5 -261t-178.5 -61h-132v154h97q68 0 106 36t84 170l30 84l-408 1102h175l315 -876l315 876h176zM671 1638h179l-293 -376h-138z" />
<glyph unicode="&#xfe;" horiz-adv-x="1170" d="M334 168v-594h-167v1982h167v-606q52 100 131.5 148.5t190.5 48.5q184 0 298.5 -162t114.5 -426t-114.5 -426t-298.5 -162q-111 0 -190.5 48.5t-131.5 148.5zM897 559q0 203 -75 318.5t-206 115.5q-132 0 -207 -115.5t-75 -318.5t75 -318.5t207 -115.5q131 0 206 115.5 t75 318.5z" />
<glyph unicode="&#xff;" horiz-adv-x="1090" d="M55 0zM593 -104q-70 -200 -136.5 -261t-178.5 -61h-132v154h97q68 0 106 36t84 170l30 84l-408 1102h175l315 -876l315 876h176zM630 1552h183v-202h-183v202zM279 1552h182v-202h-182v202z" />
<glyph unicode="&#x100;" horiz-adv-x="1260" d="M14 0zM362 1841h538v-148h-538v148zM630 1294l-247 -743h495zM527 1493h207l512 -1493h-189l-123 383h-606l-122 -383h-192z" />
<glyph unicode="&#x101;" horiz-adv-x="1129" d="M111 0zM259 1526h538v-148h-538v148zM632 563q-201 0 -278.5 -51t-77.5 -174q0 -98 58 -155.5t158 -57.5q138 0 221 108.5t83 288.5v41h-164zM962 639v-639h-166v170q-56 -102 -140.5 -150.5t-207.5 -48.5q-155 0 -246 96.5t-91 258.5q0 189 113.5 285t339.5 96h232v18 q0 127 -75 196.5t-211 69.5q-86 0 -168 -23t-158 -69v170q91 39 176.5 58.5t166.5 19.5q219 0 327 -126t108 -382z" />
<glyph unicode="&#x102;" horiz-adv-x="1260" d="M14 0zM364 1938h106q10 -75 53.5 -112.5t122.5 -37.5q77 0 120.5 37t54.5 113h106q-8 -143 -79.5 -215t-201.5 -72q-131 0 -202 72t-80 215zM630 1294l-247 -743h495zM527 1493h207l512 -1493h-189l-123 383h-606l-122 -383h-192z" />
<glyph unicode="&#x103;" horiz-adv-x="1129" d="M111 0zM250 1567h106q10 -75 53.5 -112.5t122.5 -37.5q77 0 120.5 37t54.5 113h106q-8 -143 -79.5 -215t-201.5 -72q-131 0 -202 72t-80 215zM632 563q-201 0 -278.5 -51t-77.5 -174q0 -98 58 -155.5t158 -57.5q138 0 221 108.5t83 288.5v41h-164zM962 639v-639h-166v170 q-56 -102 -140.5 -150.5t-207.5 -48.5q-155 0 -246 96.5t-91 258.5q0 189 113.5 285t339.5 96h232v18q0 127 -75 196.5t-211 69.5q-86 0 -168 -23t-158 -69v170q91 39 176.5 58.5t166.5 19.5q219 0 327 -126t108 -382z" />
<glyph unicode="&#x104;" horiz-adv-x="1260" d="M14 0zM630 1294l-247 -743h495zM527 1493h207l512 -1493h-189l-123 383h-606l-122 -383h-192zM1062 0h107q-40 -61 -59.5 -105t-19.5 -75q0 -46 24.5 -69t73.5 -23q29 0 57 7.5t55 22.5v-133q-34 -10 -64.5 -15t-57.5 -5q-110 0 -161.5 43.5t-51.5 136.5q0 48 23.5 100.5 t73.5 114.5z" />
<glyph unicode="&#x105;" horiz-adv-x="1129" d="M111 0zM632 563q-201 0 -278.5 -51t-77.5 -174q0 -98 58 -155.5t158 -57.5q138 0 221 108.5t83 288.5v41h-164zM962 639v-639h-166v170q-56 -102 -140.5 -150.5t-207.5 -48.5q-155 0 -246 96.5t-91 258.5q0 189 113.5 285t339.5 96h232v18q0 127 -75 196.5t-211 69.5 q-86 0 -168 -23t-158 -69v170q91 39 176.5 58.5t166.5 19.5q219 0 327 -126t108 -382zM798 0h107q-40 -61 -59.5 -105t-19.5 -75q0 -46 24.5 -69t73.5 -23q29 0 57 7.5t55 22.5v-133q-34 -10 -64.5 -15t-57.5 -5q-110 0 -161.5 43.5t-51.5 136.5q0 48 23.5 100.5t73.5 114.5 z" />
<glyph unicode="&#x106;" horiz-adv-x="1287" d="M104 0zM1187 1378v-213q-92 95 -196 142t-221 47q-230 0 -352.5 -156.5t-122.5 -452.5q0 -295 122.5 -451.5t352.5 -156.5q117 0 221 47t196 142v-211q-95 -72 -202 -108t-225 -36q-306 0 -481 207.5t-175 566.5q0 360 175 567.5t481 207.5q120 0 227 -35.5t200 -106.5z M781 1899h166l-205 -264h-138z" />
<glyph unicode="&#x107;" horiz-adv-x="1013" d="M102 0zM899 1077v-172q-70 43 -140.5 64.5t-142.5 21.5q-162 0 -251 -113.5t-89 -318.5t89 -318.5t251 -113.5q72 0 142.5 21.5t140.5 64.5v-170q-69 -36 -143.5 -54t-157.5 -18q-228 0 -362 159t-134 429q0 274 135.5 431t370.5 157q77 0 150 -17.5t141 -52.5zM709 1638 h179l-293 -376h-138z" />
<glyph unicode="&#x108;" horiz-adv-x="1287" d="M104 0zM675 1901h169l190 -266h-125l-150 178l-149 -178h-125zM1187 1378v-213q-92 95 -196 142t-221 47q-230 0 -352.5 -156.5t-122.5 -452.5q0 -295 122.5 -451.5t352.5 -156.5q117 0 221 47t196 142v-211q-95 -72 -202 -108t-225 -36q-306 0 -481 207.5t-175 566.5 q0 360 175 567.5t481 207.5q120 0 227 -35.5t200 -106.5z" />
<glyph unicode="&#x109;" horiz-adv-x="1013" d="M102 0zM899 1077v-172q-70 43 -140.5 64.5t-142.5 21.5q-162 0 -251 -113.5t-89 -318.5t89 -318.5t251 -113.5q72 0 142.5 21.5t140.5 64.5v-170q-69 -36 -143.5 -54t-157.5 -18q-228 0 -362 159t-134 429q0 274 135.5 431t370.5 157q77 0 150 -17.5t141 -52.5zM542 1638 h133l221 -376h-125l-162 245l-162 -245h-125z" />
<glyph unicode="&#x10a;" horiz-adv-x="1287" d="M104 0zM1187 1378v-213q-92 95 -196 142t-221 47q-230 0 -352.5 -156.5t-122.5 -452.5q0 -295 122.5 -451.5t352.5 -156.5q117 0 221 47t196 142v-211q-95 -72 -202 -108t-225 -36q-306 0 -481 207.5t-175 566.5q0 360 175 567.5t481 207.5q120 0 227 -35.5t200 -106.5z M667 1872h184v-205h-184v205z" />
<glyph unicode="&#x10b;" horiz-adv-x="1013" d="M102 0zM899 1077v-172q-70 43 -140.5 64.5t-142.5 21.5q-162 0 -251 -113.5t-89 -318.5t89 -318.5t251 -113.5q72 0 142.5 21.5t140.5 64.5v-170q-69 -36 -143.5 -54t-157.5 -18q-228 0 -362 159t-134 429q0 274 135.5 431t370.5 157q77 0 150 -17.5t141 -52.5zM517 1552 h184v-204h-184v204z" />
<glyph unicode="&#x10c;" horiz-adv-x="1287" d="M104 0zM1187 1378v-213q-92 95 -196 142t-221 47q-230 0 -352.5 -156.5t-122.5 -452.5q0 -295 122.5 -451.5t352.5 -156.5q117 0 221 47t196 142v-211q-95 -72 -202 -108t-225 -36q-306 0 -481 207.5t-175 566.5q0 360 175 567.5t481 207.5q120 0 227 -35.5t200 -106.5z M647 1635l-190 266h125l149 -178l150 178h125l-190 -266h-169z" />
<glyph unicode="&#x10d;" horiz-adv-x="1013" d="M102 0zM899 1077v-172q-70 43 -140.5 64.5t-142.5 21.5q-162 0 -251 -113.5t-89 -318.5t89 -318.5t251 -113.5q72 0 142.5 21.5t140.5 64.5v-170q-69 -36 -143.5 -54t-157.5 -18q-228 0 -362 159t-134 429q0 274 135.5 431t370.5 157q77 0 150 -17.5t141 -52.5zM517 1262 l-220 376h125l162 -245l162 245h125l-221 -376h-133z" />
<glyph unicode="&#x10e;" horiz-adv-x="1419" d="M181 0zM363 1327v-1161h219q278 0 407.5 140t129.5 442q0 300 -129.5 439.5t-407.5 139.5h-219zM181 1493h373q391 0 573.5 -180.5t182.5 -564.5q0 -386 -183.5 -567t-572.5 -181h-373v1493zM589 1655l-190 266h125l149 -178l150 178h125l-190 -266h-169z" />
<glyph unicode="&#x10f;" horiz-adv-x="1170" d="M102 0zM837 950v606h166v-1556h-166v168q-52 -100 -131.5 -148.5t-191.5 -48.5q-183 0 -297.5 162t-114.5 426t114.5 426t297.5 162q112 0 191.5 -48.5t131.5 -148.5zM273 559q0 -203 75 -318.5t206 -115.5q132 0 207.5 115.5t75.5 318.5t-75.5 318.5t-207.5 115.5 q-131 0 -206 -115.5t-75 -318.5zM1170 1554h179l-105 -376h-138z" />
<glyph unicode="&#x110;" horiz-adv-x="1428" d="M9 0zM190 1493h374q390 0 572.5 -180.5t182.5 -564.5q0 -386 -183 -567t-572 -181h-374v700h-181v144h181v649zM373 1327v-483h302v-144h-302v-534h218q278 0 407.5 140t129.5 442q0 300 -129.5 439.5t-407.5 139.5h-218z" />
<glyph unicode="&#x111;" horiz-adv-x="1170" d="M837 950v334h-293v125h293v147h166v-147h138v-125h-138v-1284h-166v168q-52 -100 -131.5 -148.5t-191.5 -48.5q-183 0 -297.5 162t-114.5 426t114.5 426t297.5 162q112 0 191.5 -48.5t131.5 -148.5zM273 559q0 -203 75 -318.5t206 -115.5q132 0 207.5 115.5t75.5 318.5 t-75.5 318.5t-207.5 115.5q-131 0 -206 -115.5t-75 -318.5z" />
<glyph unicode="&#x112;" horiz-adv-x="1164" d="M181 0zM181 1493h849v-170h-667v-442h640v-170h-640v-541h684v-170h-866v1493zM337 1843h538v-148h-538v148z" />
<glyph unicode="&#x113;" horiz-adv-x="1134" d="M102 0zM327 1526h538v-148h-538v148zM1036 606v-90h-762q11 -190 103.5 -289.5t256.5 -99.5q96 0 185.5 26t177.5 78v-174q-89 -42 -182.5 -64t-189.5 -22q-242 0 -382.5 156t-140.5 422q0 275 133.5 436.5t360.5 161.5q203 0 321.5 -145.5t118.5 -395.5zM870 660 q-2 151 -76 241t-196 90q-139 0 -222.5 -87t-95.5 -245z" />
<glyph unicode="&#x114;" horiz-adv-x="1164" d="M181 0zM324 1901h106q11 -54 55.5 -82.5t119.5 -28.5q74 0 117.5 27.5t58.5 83.5h106q-9 -119 -81 -180.5t-201 -61.5t-201 61t-80 181zM181 1493h849v-170h-667v-442h640v-170h-640v-541h684v-170h-866v1493z" />
<glyph unicode="&#x115;" horiz-adv-x="1134" d="M102 0zM314 1608h106q10 -75 53.5 -112.5t122.5 -37.5q77 0 120.5 37t54.5 113h106q-8 -143 -79.5 -215t-201.5 -72q-131 0 -202 72t-80 215zM1036 606v-90h-762q11 -190 103.5 -289.5t256.5 -99.5q96 0 185.5 26t177.5 78v-174q-89 -42 -182.5 -64t-189.5 -22 q-242 0 -382.5 156t-140.5 422q0 275 133.5 436.5t360.5 161.5q203 0 321.5 -145.5t118.5 -395.5zM870 660q-2 151 -76 241t-196 90q-139 0 -222.5 -87t-95.5 -245z" />
<glyph unicode="&#x116;" horiz-adv-x="1164" d="M181 0zM181 1493h849v-170h-667v-442h640v-170h-640v-541h684v-170h-866v1493zM513 1872h184v-205h-184v205z" />
<glyph unicode="&#x117;" horiz-adv-x="1134" d="M102 0zM1036 606v-90h-762q11 -190 103.5 -289.5t256.5 -99.5q96 0 185.5 26t177.5 78v-174q-89 -42 -182.5 -64t-189.5 -22q-242 0 -382.5 156t-140.5 422q0 275 133.5 436.5t360.5 161.5q203 0 321.5 -145.5t118.5 -395.5zM870 660q-2 151 -76 241t-196 90 q-139 0 -222.5 -87t-95.5 -245zM504 1552h184v-204h-184v204z" />
<glyph unicode="&#x118;" horiz-adv-x="1164" d="M181 0zM181 1493h849v-170h-667v-442h640v-170h-640v-541h684v-170h-866v1493zM810 0h107q-40 -61 -59.5 -105t-19.5 -75q0 -46 24.5 -69t73.5 -23q29 0 57 7.5t55 22.5v-133q-34 -10 -64.5 -15t-57.5 -5q-110 0 -161.5 43.5t-51.5 136.5q0 48 23.5 100.5t73.5 114.5z " />
<glyph unicode="&#x119;" horiz-adv-x="1134" d="M102 0zM1036 606v-90h-762q11 -190 103.5 -289.5t256.5 -99.5q96 0 185.5 26t177.5 78v-174q-89 -42 -182.5 -64t-189.5 -22q-242 0 -382.5 156t-140.5 422q0 275 133.5 436.5t360.5 161.5q203 0 321.5 -145.5t118.5 -395.5zM870 660q-2 151 -76 241t-196 90 q-139 0 -222.5 -87t-95.5 -245zM734 0h107q-40 -61 -59.5 -105t-19.5 -75q0 -46 24.5 -69t73.5 -23q29 0 57 7.5t55 22.5v-133q-34 -10 -64.5 -15t-57.5 -5q-110 0 -161.5 43.5t-51.5 136.5q0 48 23.5 100.5t73.5 114.5z" />
<glyph unicode="&#x11a;" horiz-adv-x="1164" d="M181 0zM181 1493h849v-170h-667v-442h640v-170h-640v-541h684v-170h-866v1493zM526 1629l-190 266h125l149 -178l150 178h125l-190 -266h-169z" />
<glyph unicode="&#x11b;" horiz-adv-x="1134" d="M102 0zM1036 606v-90h-762q11 -190 103.5 -289.5t256.5 -99.5q96 0 185.5 26t177.5 78v-174q-89 -42 -182.5 -64t-189.5 -22q-242 0 -382.5 156t-140.5 422q0 275 133.5 436.5t360.5 161.5q203 0 321.5 -145.5t118.5 -395.5zM870 660q-2 151 -76 241t-196 90 q-139 0 -222.5 -87t-95.5 -245zM527 1257l-220 376h125l162 -245l162 245h125l-221 -376h-133z" />
<glyph unicode="&#x11c;" horiz-adv-x="1428" d="M104 0zM690 1901h169l190 -266h-125l-150 178l-149 -178h-125zM1097 213v401h-297v166h477v-641q-105 -83 -232 -125.5t-271 -42.5q-315 0 -492.5 204.5t-177.5 569.5q0 366 177.5 570.5t492.5 204.5q131 0 249.5 -36t218.5 -106v-215q-101 95 -214.5 143t-238.5 48 q-246 0 -370 -153t-124 -456q0 -302 124 -455t370 -153q97 0 172.5 18.5t135.5 57.5z" />
<glyph unicode="&#x11d;" horiz-adv-x="1170" d="M102 0zM488 1638h133l221 -376h-125l-162 245l-162 -245h-125zM837 573q0 200 -74.5 310t-208.5 110q-133 0 -207 -110t-74 -310q0 -199 74 -309t207 -110q134 0 208.5 110t74.5 309zM1003 139q0 -286 -114.5 -425.5t-350.5 -139.5q-87 0 -164.5 14.5t-150.5 44.5v179 q73 -44 144 -65t145 -21q163 0 244 94.5t81 285.5v91q-51 -99 -131 -148t-192 -49q-186 0 -299 157t-113 416q0 260 113 417t299 157q112 0 192 -49t131 -148v170h166v-981z" />
<glyph unicode="&#x11e;" horiz-adv-x="1428" d="M104 0zM1097 213v401h-297v166h477v-641q-105 -83 -232 -125.5t-271 -42.5q-315 0 -492.5 204.5t-177.5 569.5q0 366 177.5 570.5t492.5 204.5q131 0 249.5 -36t218.5 -106v-215q-101 95 -214.5 143t-238.5 48q-246 0 -370 -153t-124 -456q0 -302 124 -455t370 -153 q97 0 172.5 18.5t135.5 57.5zM434 1901h106q11 -54 55.5 -82.5t119.5 -28.5q74 0 117.5 27.5t58.5 83.5h106q-9 -119 -81 -180.5t-201 -61.5t-201 61t-80 181z" />
<glyph unicode="&#x11f;" horiz-adv-x="1170" d="M102 0zM837 573q0 200 -74.5 310t-208.5 110q-133 0 -207 -110t-74 -310q0 -199 74 -309t207 -110q134 0 208.5 110t74.5 309zM1003 139q0 -286 -114.5 -425.5t-350.5 -139.5q-87 0 -164.5 14.5t-150.5 44.5v179q73 -44 144 -65t145 -21q163 0 244 94.5t81 285.5v91 q-51 -99 -131 -148t-192 -49q-186 0 -299 157t-113 416q0 260 113 417t299 157q112 0 192 -49t131 -148v170h166v-981zM304 1608h106q10 -75 53.5 -112.5t122.5 -37.5q77 0 120.5 37t54.5 113h106q-8 -143 -79.5 -215t-201.5 -72q-131 0 -202 72t-80 215z" />
<glyph unicode="&#x120;" horiz-adv-x="1428" d="M104 0zM682 1872h184v-205h-184v205zM1097 213v401h-297v166h477v-641q-105 -83 -232 -125.5t-271 -42.5q-315 0 -492.5 204.5t-177.5 569.5q0 366 177.5 570.5t492.5 204.5q131 0 249.5 -36t218.5 -106v-215q-101 95 -214.5 143t-238.5 48q-246 0 -370 -153t-124 -456 q0 -302 124 -455t370 -153q97 0 172.5 18.5t135.5 57.5z" />
<glyph unicode="&#x121;" horiz-adv-x="1170" d="M102 0zM463 1552h184v-204h-184v204zM837 573q0 200 -74.5 310t-208.5 110q-133 0 -207 -110t-74 -310q0 -199 74 -309t207 -110q134 0 208.5 110t74.5 309zM1003 139q0 -286 -114.5 -425.5t-350.5 -139.5q-87 0 -164.5 14.5t-150.5 44.5v179q73 -44 144 -65t145 -21 q163 0 244 94.5t81 285.5v91q-51 -99 -131 -148t-192 -49q-186 0 -299 157t-113 416q0 260 113 417t299 157q112 0 192 -49t131 -148v170h166v-981z" />
<glyph unicode="&#x122;" horiz-adv-x="1428" d="M104 0zM714 -191h190l-148 -320h-116zM1097 213v401h-297v166h477v-641q-105 -83 -232 -125.5t-271 -42.5q-315 0 -492.5 204.5t-177.5 569.5q0 366 177.5 570.5t492.5 204.5q131 0 249.5 -36t218.5 -106v-215q-101 95 -214.5 143t-238.5 48q-246 0 -370 -153t-124 -456 q0 -302 124 -455t370 -153q97 0 172.5 18.5t135.5 57.5z" />
<glyph unicode="&#x123;" horiz-adv-x="1170" d="M102 0zM649 1269h-190l148 319h116zM837 573q0 200 -74.5 310t-208.5 110q-133 0 -207 -110t-74 -310q0 -199 74 -309t207 -110q134 0 208.5 110t74.5 309zM1003 139q0 -286 -114.5 -425.5t-350.5 -139.5q-87 0 -164.5 14.5t-150.5 44.5v179q73 -44 144 -65t145 -21 q163 0 244 94.5t81 285.5v91q-51 -99 -131 -148t-192 -49q-186 0 -299 157t-113 416q0 260 113 417t299 157q112 0 192 -49t131 -148v170h166v-981z" />
<glyph unicode="&#x124;" horiz-adv-x="1386" d="M181 0zM609 1901h169l190 -266h-125l-150 178l-149 -178h-125zM181 1493h182v-612h660v612h182v-1493h-182v711h-660v-711h-182v1493z" />
<glyph unicode="&#x125;" horiz-adv-x="1168" d="M0 0zM166 1901h169l190 -266h-125l-150 178l-149 -178h-125zM1012 676v-676h-166v670q0 159 -56 238t-167 79q-134 0 -211.5 -95t-77.5 -259v-633h-167v1556h167v-610q59 101 139.5 151t186.5 50q173 0 262.5 -119.5t89.5 -351.5z" />
<glyph unicode="&#x126;" horiz-adv-x="1688" d="M332 1493h182v-224h660v224h182v-224h152v-164h-152v-1105h-182v711h-660v-711h-182v1105h-151v164h151v224zM514 1105v-224h660v224h-660z" />
<glyph unicode="&#x127;" horiz-adv-x="1280" d="M1065 676v-676h-166v670q0 159 -55.5 238t-167.5 79q-134 0 -211.5 -95t-77.5 -259v-633h-167v1270h-112v164h112v122h167v-122h317v-164h-317v-324q59 101 140 151t186 50q173 0 262.5 -119.5t89.5 -351.5z" />
<glyph unicode="&#x128;" horiz-adv-x="543" d="M0 0zM269 1710l-52 33q-22 14 -36 19.5t-25 5.5q-32 0 -50 -25t-18 -70v-6h-113q0 101 46.5 160t123.5 59q33 0 60.5 -8t70.5 -35l51 -30q21 -13 36 -19t29 -6q29 0 47 25.5t18 66.5v6h112q-2 -100 -48 -159.5t-122 -59.5q-30 0 -57 8t-73 35zM181 1493h182v-1493h-182 v1493z" />
<glyph unicode="&#x129;" horiz-adv-x="512" d="M0 0zM253 1370l-51 55q-20 20 -35 29.5t-26 9.5q-35 0 -51 -36.5t-18 -118.5h-112q2 135 47.5 208.5t127.5 73.5q35 0 63.5 -14t61.5 -47l52 -55q20 -20 34.5 -29.5t26.5 -9.5q34 0 50.5 36.5t17.5 118.5h113q-2 -135 -48 -208.5t-128 -73.5q-34 0 -63 14t-62 47z M174 1120h165v-1120h-165v1120zM256 1147z" />
<glyph unicode="&#x12a;" horiz-adv-x="543" d="M3 0zM3 1841h538v-148h-538v148zM181 1493h182v-1493h-182v1493z" />
<glyph unicode="&#x12b;" horiz-adv-x="512" d="M0 0zM-12 1525h538v-148h-538v148zM174 1120h165v-1120h-165v1120zM256 1147z" />
<glyph unicode="&#x12c;" horiz-adv-x="543" d="M0 0zM-9 1901h106q11 -54 55.5 -82.5t119.5 -28.5q74 0 117.5 27.5t58.5 83.5h106q-9 -119 -81 -180.5t-201 -61.5t-201 61t-80 181zM181 1493h182v-1493h-182v1493z" />
<glyph unicode="&#x12d;" horiz-adv-x="512" d="M0 0zM-25 1608h106q10 -75 53.5 -112.5t122.5 -37.5q77 0 120.5 37t54.5 113h106q-8 -143 -79.5 -215t-201.5 -72q-131 0 -202 72t-80 215zM174 1120h165v-1120h-165v1120zM256 1147z" />
<glyph unicode="&#x12e;" horiz-adv-x="543" d="M159 0zM256 0h107q-40 -61 -59.5 -105t-19.5 -75q0 -46 24.5 -69t73.5 -23q29 0 57 7.5t55 22.5v-133q-34 -10 -64.5 -15t-57.5 -5q-110 0 -161.5 43.5t-51.5 136.5q0 48 23.5 100.5t73.5 114.5zM181 1493h182v-1493h-182v1493z" />
<glyph unicode="&#x12f;" horiz-adv-x="512" d="M135 0zM232 0h107q-40 -61 -59.5 -105t-19.5 -75q0 -46 24.5 -69t73.5 -23q29 0 57 7.5t55 22.5v-133q-34 -10 -64.5 -15t-57.5 -5q-110 0 -161.5 43.5t-51.5 136.5q0 48 23.5 100.5t73.5 114.5zM174 1120h165v-1120h-165v1120zM174 1556h165v-233h-165v233z" />
<glyph unicode="&#x130;" horiz-adv-x="543" d="M181 0zM181 1493h182v-1493h-182v1493zM181 1872h184v-205h-184v205z" />
<glyph unicode="&#x131;" horiz-adv-x="512" d="M174 1120h165v-1120h-165v1120zM256 1147z" />
<glyph unicode="&#x132;" horiz-adv-x="1087" d="M181 0zM725 1493h182v-1389q0 -270 -92.5 -392t-296.5 -122h-69v170h56q121 0 170.5 75t49.5 269v1389zM181 1493h182v-1493h-182v1493z" />
<glyph unicode="&#x133;" horiz-adv-x="1024" d="M174 0zM685 1120h165v-1140q0 -214 -73 -310t-236 -96h-63v156h44q94 0 128.5 48.5t34.5 201.5v1140zM685 1556h165v-233h-165v233zM174 1120h165v-1120h-165v1120zM174 1556h165v-233h-165v233z" />
<glyph unicode="&#x134;" horiz-adv-x="543" d="M0 0zM188 1901h169l190 -266h-125l-150 178l-149 -178h-125zM181 1493h182v-1389q0 -270 -92.5 -392t-296.5 -122h-69v170h56q121 0 170.5 75t49.5 269v1389z" />
<glyph unicode="&#x135;" horiz-adv-x="512" d="M0 0zM190 1638h133l221 -376h-125l-162 245l-162 -245h-125zM174 1120h165v-1140q0 -214 -73 -310t-236 -96h-63v156h44q94 0 128.5 48.5t34.5 201.5v1140z" />
<glyph unicode="&#x136;" horiz-adv-x="1208" d="M181 0zM654 -162h190l-148 -320h-116zM181 1493h182v-631l603 631h234l-667 -696l714 -797h-239l-645 719v-719h-182v1493z" />
<glyph unicode="&#x137;" horiz-adv-x="1067" d="M167 0zM555 -162h190l-148 -320h-116zM167 1556h167v-919l494 483h212l-535 -524l557 -596h-216l-512 547v-547h-167v1556z" />
<glyph unicode="&#x138;" horiz-adv-x="1067" d="M167 1120h167v-485l494 485h212l-535 -526l557 -594h-216l-512 545v-545h-167v1120z" />
<glyph unicode="&#x139;" horiz-adv-x="1026" d="M181 0zM379 1900h166l-205 -264h-138zM181 1493h182v-1323h654v-170h-836v1493z" />
<glyph unicode="&#x13a;" horiz-adv-x="512" d="M174 0zM361 1900h166l-205 -264h-138zM174 1556h165v-1556h-165v1556z" />
<glyph unicode="&#x13b;" horiz-adv-x="1026" d="M181 0zM539 -162h190l-148 -320h-116zM181 1493h182v-1323h654v-170h-836v1493z" />
<glyph unicode="&#x13c;" horiz-adv-x="512" d="M122 0zM196 -162h190l-148 -320h-116zM174 1556h165v-1556h-165v1556z" />
<glyph unicode="&#x13d;" horiz-adv-x="1026" d="M181 0zM604 1493h179l-105 -376h-138zM181 1493h182v-1323h654v-170h-836v1493z" />
<glyph unicode="&#x13e;" horiz-adv-x="691" d="M174 0zM512 1556h179l-105 -376h-138zM174 1556h165v-1556h-165v1556z" />
<glyph unicode="&#x13f;" horiz-adv-x="1026" d="M181 0zM702 957h190v-254h-190v254zM181 1493h182v-1323h654v-170h-836v1493z" />
<glyph unicode="&#x140;" horiz-adv-x="630" d="M174 0zM390 953h190v-254h-190v254zM174 1556h165v-1556h-165v1556z" />
<glyph unicode="&#x141;" horiz-adv-x="1035" d="M190 1493h183v-616l281 219l72 -111l-353 -274v-541h654v-170h-837v571l-133 -106l-70 110l203 158v760z" />
<glyph unicode="&#x142;" horiz-adv-x="523" d="M179 1556h166v-602l112 90l69 -106l-181 -141v-797h-166v666l-111 -88l-66 106l177 141v731z" />
<glyph unicode="&#x143;" horiz-adv-x="1378" d="M181 0zM688 1900h166l-205 -264h-138zM181 1493h245l596 -1249v1249h176v-1493h-245l-596 1249v-1249h-176v1493z" />
<glyph unicode="&#x144;" horiz-adv-x="1168" d="M167 0zM646 1645h179l-293 -376h-138zM1012 676v-676h-166v670q0 159 -56 238t-167 79q-134 0 -211.5 -95t-77.5 -259v-633h-167v1120h167v-174q59 101 139.5 151t186.5 50q173 0 262.5 -119.5t89.5 -351.5z" />
<glyph unicode="&#x145;" horiz-adv-x="1378" d="M181 0zM630 -162h190l-148 -320h-116zM181 1493h245l596 -1249v1249h176v-1493h-245l-596 1249v-1249h-176v1493z" />
<glyph unicode="&#x146;" horiz-adv-x="1168" d="M167 0zM530 -162h190l-148 -320h-116zM1012 676v-676h-166v670q0 159 -56 238t-167 79q-134 0 -211.5 -95t-77.5 -259v-633h-167v1120h167v-174q59 101 139.5 151t186.5 50q173 0 262.5 -119.5t89.5 -351.5z" />
<glyph unicode="&#x147;" horiz-adv-x="1378" d="M181 0zM181 1493h245l596 -1249v1249h176v-1493h-245l-596 1249v-1249h-176v1493zM597 1621l-190 266h125l149 -178l150 178h125l-190 -266h-169z" />
<glyph unicode="&#x148;" horiz-adv-x="1168" d="M167 0zM1012 676v-676h-166v670q0 159 -56 238t-167 79q-134 0 -211.5 -95t-77.5 -259v-633h-167v1120h167v-174q59 101 139.5 151t186.5 50q173 0 262.5 -119.5t89.5 -351.5zM521 1262l-220 376h125l162 -245l162 245h125l-221 -376h-133z" />
<glyph unicode="&#x149;" horiz-adv-x="1499" d="M184 0zM1319 676v-676h-166v670q0 159 -56 238t-167 79q-134 0 -211.5 -95t-77.5 -259v-633h-167v1120h167v-174q59 101 139.5 151t186.5 50q173 0 262.5 -119.5t89.5 -351.5zM184 1022zM258 1493h190v-152l-148 -319h-116l74 319v152z" />
<glyph unicode="&#x14a;" horiz-adv-x="1378" d="M994 895q0 428 -277 428q-161 0 -257.5 -127.5t-96.5 -349.5v-846h-182v1493h182v-241q70 134 164 201q96 67 233 67q205 0 309.5 -159.5t104.5 -467.5v-913q0 -213 -73 -310q-73 -96 -236 -96h-78v156h44q92 0 127.5 45t35.5 205v915z" />
<glyph unicode="&#x14b;" horiz-adv-x="1168" d="M1012 676v-696q0 -214 -74 -310q-73 -96 -236 -96h-229v156h210q95 0 129 48q34 49 34 202v690q0 159 -56 238t-167 79q-134 0 -211.5 -95t-77.5 -259v-633h-167v1120h167v-174q59 101 139 151q81 50 187 50q173 0 262 -119q90 -120 90 -352z" />
<glyph unicode="&#x14c;" horiz-adv-x="1450" d="M104 0zM458 1841h538v-148h-538v148zM726 1356q-198 0 -314.5 -164t-116.5 -447q0 -282 116.5 -446t314.5 -164t314 164t116 446q0 283 -116 447t-314 164zM726 1520q283 0 452 -210.5t169 -564.5q0 -353 -169 -563.5t-452 -210.5t-452.5 210t-169.5 564t169.5 564.5 t452.5 210.5z" />
<glyph unicode="&#x14d;" horiz-adv-x="1127" d="M102 0zM296 1525h538v-148h-538v148zM564 991q-133 0 -210.5 -115.5t-77.5 -316.5t77 -316.5t211 -115.5q133 0 210 116t77 316q0 199 -77 315.5t-210 116.5zM564 1147q216 0 339.5 -156t123.5 -432q0 -275 -123.5 -431.5t-339.5 -156.5q-217 0 -339.5 156.5 t-122.5 431.5q0 276 122.5 432t339.5 156z" />
<glyph unicode="&#x14e;" horiz-adv-x="1450" d="M104 0zM445 1901h106q11 -54 55.5 -82.5t119.5 -28.5q74 0 117.5 27.5t58.5 83.5h106q-9 -119 -81 -180.5t-201 -61.5t-201 61t-80 181zM726 1356q-198 0 -314.5 -164t-116.5 -447q0 -282 116.5 -446t314.5 -164t314 164t116 446q0 283 -116 447t-314 164zM726 1520 q283 0 452 -210.5t169 -564.5q0 -353 -169 -563.5t-452 -210.5t-452.5 210t-169.5 564t169.5 564.5t452.5 210.5z" />
<glyph unicode="&#x14f;" horiz-adv-x="1127" d="M102 0zM283 1608h106q10 -75 53.5 -112.5t122.5 -37.5q77 0 120.5 37t54.5 113h106q-8 -143 -79.5 -215t-201.5 -72q-131 0 -202 72t-80 215zM564 991q-133 0 -210.5 -115.5t-77.5 -316.5t77 -316.5t211 -115.5q133 0 210 116t77 316q0 199 -77 315.5t-210 116.5z M564 1147q216 0 339.5 -156t123.5 -432q0 -275 -123.5 -431.5t-339.5 -156.5q-217 0 -339.5 156.5t-122.5 431.5q0 276 122.5 432t339.5 156z" />
<glyph unicode="&#x150;" horiz-adv-x="1450" d="M104 0zM950 1899h167l-205 -264h-138zM649 1899h166l-205 -264h-138zM726 1356q-198 0 -314.5 -164t-116.5 -447q0 -282 116.5 -446t314.5 -164t314 164t116 446q0 283 -116 447t-314 164zM726 1520q283 0 452 -210.5t169 -564.5q0 -353 -169 -563.5t-452 -210.5 t-452.5 210t-169.5 564t169.5 564.5t452.5 210.5z" />
<glyph unicode="&#x151;" horiz-adv-x="1127" d="M102 0zM832 1638h160l-223 -376h-122zM531 1638h153l-201 -376h-123zM564 991q-133 0 -210.5 -115.5t-77.5 -316.5t77 -316.5t211 -115.5q133 0 210 116t77 316q0 199 -77 315.5t-210 116.5zM564 1147q216 0 339.5 -156t123.5 -432q0 -275 -123.5 -431.5t-339.5 -156.5 q-217 0 -339.5 156.5t-122.5 431.5q0 276 122.5 432t339.5 156z" />
<glyph unicode="&#x152;" horiz-adv-x="1971" d="M1838 1493v-170h-668v-442h640v-170h-640v-541h684v-170h-958q-390 0 -591 190t-201 558q0 365 201 555t591 190h942zM988 1323h-116q-289 0 -433 -143.5t-144 -431.5q0 -289 144 -433.5t433 -144.5h116v1153z" />
<glyph unicode="&#x153;" horiz-adv-x="1885" d="M1622 660q-2 152 -76 241.5t-197 89.5q-138 0 -221 -87t-96 -245zM1788 606v-90h-761q11 -190 102.5 -289.5t256.5 -99.5q95 0 185 26t179 78v-174q-90 -42 -184 -64t-189 -22q-144 0 -253 55t-182 164q-64 -110 -158 -164.5t-220 -54.5q-217 0 -339.5 156.5 t-122.5 431.5q0 276 122.5 432t339.5 156q126 0 221 -55.5t155 -163.5q70 107 174.5 163t232.5 56q204 0 322.5 -145.5t118.5 -395.5zM564 991q-133 0 -210.5 -115.5t-77.5 -316.5t77 -316.5t211 -115.5q133 0 210 116t77 316q0 199 -77 315.5t-210 116.5z" />
<glyph unicode="&#x154;" horiz-adv-x="1280" d="M181 0zM645 1900h166l-205 -264h-138zM818 700q59 -22 114 -94t111 -198l185 -408h-196l-172 383q-66 150 -128.5 199t-170.5 49h-198v-631h-182v1493h410q231 0 344 -107t113 -323q0 -141 -58.5 -234t-171.5 -129zM363 1327v-530h228q132 0 199 67.5t67 198.5t-67 197.5 t-199 66.5h-228z" />
<glyph unicode="&#x155;" horiz-adv-x="757" d="M167 0zM645 1645h179l-293 -376h-138zM758 948q-28 18 -61 26.5t-72 8.5q-141 0 -216 -101.5t-75 -291.5v-590h-167v1120h167v-174q52 102 136 151.5t203 49.5q17 0 38 -2.5t46 -7.5z" />
<glyph unicode="&#x156;" horiz-adv-x="1280" d="M181 0zM644 -162h190l-148 -320h-116zM818 700q59 -22 114 -94t111 -198l185 -408h-196l-172 383q-66 150 -128.5 199t-170.5 49h-198v-631h-182v1493h410q231 0 344 -107t113 -323q0 -141 -58.5 -234t-171.5 -129zM363 1327v-530h228q132 0 199 67.5t67 198.5t-67 197.5 t-199 66.5h-228z" />
<glyph unicode="&#x157;" horiz-adv-x="757" d="M117 0zM191 -162h190l-148 -320h-116zM758 948q-28 18 -61 26.5t-72 8.5q-141 0 -216 -101.5t-75 -291.5v-590h-167v1120h167v-174q52 102 136 151.5t203 49.5q17 0 38 -2.5t46 -7.5z" />
<glyph unicode="&#x158;" horiz-adv-x="1280" d="M181 0zM818 700q59 -22 114 -94t111 -198l185 -408h-196l-172 383q-66 150 -128.5 199t-170.5 49h-198v-631h-182v1493h410q231 0 344 -107t113 -323q0 -141 -58.5 -234t-171.5 -129zM363 1327v-530h228q132 0 199 67.5t67 198.5t-67 197.5t-199 66.5h-228zM489 1621 l-190 266h125l149 -178l150 178h125l-190 -266h-169z" />
<glyph unicode="&#x159;" horiz-adv-x="757" d="M167 0zM758 948q-28 18 -61 26.5t-72 8.5q-141 0 -216 -101.5t-75 -291.5v-590h-167v1120h167v-174q52 102 136 151.5t203 49.5q17 0 38 -2.5t46 -7.5zM418 1262l-220 376h125l162 -245l162 245h125l-221 -376h-133z" />
<glyph unicode="&#x15a;" horiz-adv-x="1170" d="M122 0zM645 1900h166l-205 -264h-138zM986 1444v-197q-103 55 -195 82t-177 27q-149 0 -229.5 -64t-80.5 -182q0 -99 53.5 -149.5t203.5 -81.5l109 -25q204 -43 300.5 -151.5t96.5 -290.5q0 -217 -130.5 -329t-383.5 -112q-96 0 -203.5 24t-222.5 71v208 q111 -69 217 -104t209 -35q155 0 240 68t85 194q0 110 -61 172t-200 93l-110 24q-204 45 -294.5 141t-90.5 267q0 198 125.5 312t345.5 114q95 0 193 -19t200 -57z" />
<glyph unicode="&#x15b;" horiz-adv-x="960" d="M100 0zM646 1645h179l-293 -376h-138zM816 1087v-174q-70 40 -145.5 60t-156.5 20q-123 0 -185 -42t-62 -126q0 -64 44.5 -100.5t177.5 -69.5l56 -14q177 -42 251 -118.5t74 -213.5q0 -156 -111 -247t-305 -91q-81 0 -169 17.5t-185 52.5v190q92 -53 181 -79.5t176 -26.5 q117 0 180 44.5t63 125.5q0 75 -45.5 115t-199.5 77l-57 15q-154 36 -222.5 110.5t-68.5 204.5q0 158 101 244t286 86q92 0 173 -15t149 -45z" />
<glyph unicode="&#x15c;" horiz-adv-x="1170" d="M122 0zM509 1901h169l190 -266h-125l-150 178l-149 -178h-125zM986 1444v-197q-103 55 -195 82t-177 27q-149 0 -229.5 -64t-80.5 -182q0 -99 53.5 -149.5t203.5 -81.5l109 -25q204 -43 300.5 -151.5t96.5 -290.5q0 -217 -130.5 -329t-383.5 -112q-96 0 -203.5 24 t-222.5 71v208q111 -69 217 -104t209 -35q155 0 240 68t85 194q0 110 -61 172t-200 93l-110 24q-204 45 -294.5 141t-90.5 267q0 198 125.5 312t345.5 114q95 0 193 -19t200 -57z" />
<glyph unicode="&#x15d;" horiz-adv-x="960" d="M100 0zM427 1638h133l221 -376h-125l-162 245l-162 -245h-125zM816 1087v-174q-70 40 -145.5 60t-156.5 20q-123 0 -185 -42t-62 -126q0 -64 44.5 -100.5t177.5 -69.5l56 -14q177 -42 251 -118.5t74 -213.5q0 -156 -111 -247t-305 -91q-81 0 -169 17.5t-185 52.5v190 q92 -53 181 -79.5t176 -26.5q117 0 180 44.5t63 125.5q0 75 -45.5 115t-199.5 77l-57 15q-154 36 -222.5 110.5t-68.5 204.5q0 158 101 244t286 86q92 0 173 -15t149 -45z" />
<glyph unicode="&#x15e;" horiz-adv-x="1170" d="M122 0zM986 1444v-197q-103 55 -195 82t-177 27q-149 0 -229.5 -64t-80.5 -182q0 -99 53.5 -149.5t203.5 -81.5l109 -25q204 -43 300.5 -151.5t96.5 -290.5q0 -217 -130.5 -329t-383.5 -112q-96 0 -203.5 24t-222.5 71v208q111 -69 217 -104t209 -35q155 0 240 68t85 194 q0 110 -61 172t-200 93l-110 24q-204 45 -294.5 141t-90.5 267q0 198 125.5 312t345.5 114q95 0 193 -19t200 -57zM661 0q50 -62 74 -114.5t24 -100.5q0 -89 -54 -134.5t-160 -45.5q-41 0 -80 6t-78 18v131q30 -17 63.5 -24.5t75.5 -7.5q53 0 80 24t27 70q0 30 -19 73.5 t-60 104.5h107z" />
<glyph unicode="&#x15f;" horiz-adv-x="960" d="M100 0zM816 1087v-174q-70 40 -145.5 60t-156.5 20q-123 0 -185 -42t-62 -126q0 -64 44.5 -100.5t177.5 -69.5l56 -14q177 -42 251 -118.5t74 -213.5q0 -156 -111 -247t-305 -91q-81 0 -169 17.5t-185 52.5v190q92 -53 181 -79.5t176 -26.5q117 0 180 44.5t63 125.5 q0 75 -45.5 115t-199.5 77l-57 15q-154 36 -222.5 110.5t-68.5 204.5q0 158 101 244t286 86q92 0 173 -15t149 -45zM557 0q50 -62 74 -114.5t24 -100.5q0 -89 -54 -134.5t-160 -45.5q-41 0 -80 6t-78 18v131q30 -17 63.5 -24.5t75.5 -7.5q53 0 80 24t27 70q0 30 -19 73.5 t-60 104.5h107z" />
<glyph unicode="&#x160;" horiz-adv-x="1170" d="M122 0zM986 1444v-197q-103 55 -195 82t-177 27q-149 0 -229.5 -64t-80.5 -182q0 -99 53.5 -149.5t203.5 -81.5l109 -25q204 -43 300.5 -151.5t96.5 -290.5q0 -217 -130.5 -329t-383.5 -112q-96 0 -203.5 24t-222.5 71v208q111 -69 217 -104t209 -35q155 0 240 68t85 194 q0 110 -61 172t-200 93l-110 24q-204 45 -294.5 141t-90.5 267q0 198 125.5 312t345.5 114q95 0 193 -19t200 -57zM502 1635l-190 266h125l149 -178l150 178h125l-190 -266h-169z" />
<glyph unicode="&#x161;" horiz-adv-x="960" d="M100 0zM816 1087v-174q-70 40 -145.5 60t-156.5 20q-123 0 -185 -42t-62 -126q0 -64 44.5 -100.5t177.5 -69.5l56 -14q177 -42 251 -118.5t74 -213.5q0 -156 -111 -247t-305 -91q-81 0 -169 17.5t-185 52.5v190q92 -53 181 -79.5t176 -26.5q117 0 180 44.5t63 125.5 q0 75 -45.5 115t-199.5 77l-57 15q-154 36 -222.5 110.5t-68.5 204.5q0 158 101 244t286 86q92 0 173 -15t149 -45zM415 1262l-220 376h125l162 -245l162 245h125l-221 -376h-133z" />
<glyph unicode="&#x162;" horiz-adv-x="1125" d="M0 0zM608 0q50 -62 74 -114.5t24 -100.5q0 -89 -54 -134.5t-160 -45.5q-41 0 -80 6t-78 18v131q30 -17 63.5 -24.5t75.5 -7.5q53 0 80 24t27 70q0 30 -19 73.5t-60 104.5h107zM-5 1493h1136v-170h-477v-1323h-182v1323h-477v170z" />
<glyph unicode="&#x163;" horiz-adv-x="722" d="M50 0zM508 0q50 -62 74 -114.5t24 -100.5q0 -89 -54 -134.5t-160 -45.5q-41 0 -80 6t-78 18v131q30 -17 63.5 -24.5t75.5 -7.5q53 0 80 24t27 70q0 30 -19 73.5t-60 104.5h107zM338 1438v-318h341v-143h-341v-608q0 -137 33.5 -176t136.5 -39h171v-154h-171 q-191 0 -264 79.5t-73 289.5v608h-121v143h121v318h167z" />
<glyph unicode="&#x164;" horiz-adv-x="1125" d="M0 0zM-5 1493h1136v-170h-477v-1323h-182v1323h-477v170zM480 1621l-190 266h125l149 -178l150 178h125l-190 -266h-169z" />
<glyph unicode="&#x165;" horiz-adv-x="722" d="M50 0zM338 1438v-318h341v-143h-341v-608q0 -137 33.5 -176t136.5 -39h171v-154h-171q-191 0 -264 79.5t-73 289.5v608h-121v143h121v318h167zM510 1666h179l-105 -376h-138z" />
<glyph unicode="&#x166;" horiz-adv-x="1125" d="M-5 1493h1136v-170h-477v-576h239v-170h-239v-577h-182v577h-239v170h239v576h-477v170z" />
<glyph unicode="&#x167;" horiz-adv-x="722" d="M338 1438v-318h341v-143h-341v-233h170v-142h-170v-233q0 -137 33 -176q34 -39 137 -39h171v-154h-171q-191 0 -264 80q-73 79 -73 289v233h-121v142h121v233h-121v143h121v318h167z" />
<glyph unicode="&#x168;" horiz-adv-x="1349" d="M160 0zM672 1710l-52 33q-22 14 -36 19.5t-25 5.5q-32 0 -50 -25t-18 -70v-6h-113q0 101 46.5 160t123.5 59q33 0 60.5 -8t70.5 -35l51 -30q21 -13 36 -19t29 -6q29 0 47 25.5t18 66.5v6h112q-2 -100 -48 -159.5t-122 -59.5q-30 0 -57 8t-73 35zM160 1493h183v-907 q0 -240 78.5 -345.5t253.5 -105.5t253 105.5t78 345.5v907h183v-932q0 -292 -130 -441t-384 -149q-255 0 -385 149t-130 441v932z" />
<glyph unicode="&#x169;" horiz-adv-x="1168" d="M157 0zM575 1370l-51 55q-20 20 -35 29.5t-26 9.5q-35 0 -51 -36.5t-18 -118.5h-112q2 135 47.5 208.5t127.5 73.5q35 0 63.5 -14t61.5 -47l52 -55q20 -20 34.5 -29.5t26.5 -9.5q34 0 50.5 36.5t17.5 118.5h113q-2 -135 -48 -208.5t-128 -73.5q-34 0 -63 14t-62 47z M157 442v678h165v-671q0 -159 56 -238.5t167 -79.5q135 0 212.5 95t77.5 259v635h166v-1120h-166v172q-60 -102 -139.5 -151.5t-185.5 -49.5q-173 0 -263 120t-90 351zM573 1147z" />
<glyph unicode="&#x16a;" horiz-adv-x="1349" d="M160 0zM406 1841h538v-148h-538v148zM160 1493h183v-907q0 -240 78.5 -345.5t253.5 -105.5t253 105.5t78 345.5v907h183v-932q0 -292 -130 -441t-384 -149q-255 0 -385 149t-130 441v932z" />
<glyph unicode="&#x16b;" horiz-adv-x="1168" d="M157 0zM310 1525h538v-148h-538v148zM157 442v678h165v-671q0 -159 56 -238.5t167 -79.5q135 0 212.5 95t77.5 259v635h166v-1120h-166v172q-60 -102 -139.5 -151.5t-185.5 -49.5q-173 0 -263 120t-90 351zM573 1147z" />
<glyph unicode="&#x16c;" horiz-adv-x="1349" d="M160 0zM394 1901h106q11 -54 55.5 -82.5t119.5 -28.5q74 0 117.5 27.5t58.5 83.5h106q-9 -119 -81 -180.5t-201 -61.5t-201 61t-80 181zM160 1493h183v-907q0 -240 78.5 -345.5t253.5 -105.5t253 105.5t78 345.5v907h183v-932q0 -292 -130 -441t-384 -149 q-255 0 -385 149t-130 441v932z" />
<glyph unicode="&#x16d;" horiz-adv-x="1168" d="M157 0zM297 1608h106q10 -75 53.5 -112.5t122.5 -37.5q77 0 120.5 37t54.5 113h106q-8 -143 -79.5 -215t-201.5 -72q-131 0 -202 72t-80 215zM157 442v678h165v-671q0 -159 56 -238.5t167 -79.5q135 0 212.5 95t77.5 259v635h166v-1120h-166v172q-60 -102 -139.5 -151.5 t-185.5 -49.5q-173 0 -263 120t-90 351zM573 1147z" />
<glyph unicode="&#x16e;" horiz-adv-x="1349" d="M160 0zM160 1493h183v-907q0 -240 78.5 -345.5t253.5 -105.5t253 105.5t78 345.5v907h183v-932q0 -292 -130 -441t-384 -149q-255 0 -385 149t-130 441v932zM814 1629q0 63 -40 107t-97 44q-59 0 -98 -43.5t-39 -107.5q0 -65 39 -108.5t98 -43.5q57 0 97 44t40 108z M923 1629q0 -115 -71.5 -195t-174.5 -80q-104 0 -175.5 80t-71.5 195t71.5 194.5t175.5 79.5q103 0 174.5 -79.5t71.5 -194.5z" />
<glyph unicode="&#x16f;" horiz-adv-x="1168" d="M157 0zM157 442v678h165v-671q0 -159 56 -238.5t167 -79.5q135 0 212.5 95t77.5 259v635h166v-1120h-166v172q-60 -102 -139.5 -151.5t-185.5 -49.5q-173 0 -263 120t-90 351zM573 1147zM710 1464q0 63 -40 107t-97 44q-59 0 -98 -43.5t-39 -107.5q0 -65 39 -108.5 t98 -43.5q57 0 97 44t40 108zM819 1464q0 -115 -71.5 -195t-174.5 -80q-104 0 -175.5 80t-71.5 195t71.5 194.5t175.5 79.5q103 0 174.5 -79.5t71.5 -194.5z" />
<glyph unicode="&#x170;" horiz-adv-x="1349" d="M160 0zM899 1899h167l-205 -264h-138zM598 1899h166l-205 -264h-138zM160 1493h183v-907q0 -240 78.5 -345.5t253.5 -105.5t253 105.5t78 345.5v907h183v-932q0 -292 -130 -441t-384 -149q-255 0 -385 149t-130 441v932z" />
<glyph unicode="&#x171;" horiz-adv-x="1168" d="M157 0zM846 1638h160l-223 -376h-122zM545 1638h153l-201 -376h-123zM157 442v678h165v-671q0 -159 56 -238.5t167 -79.5q135 0 212.5 95t77.5 259v635h166v-1120h-166v172q-60 -102 -139.5 -151.5t-185.5 -49.5q-173 0 -263 120t-90 351zM573 1147z" />
<glyph unicode="&#x172;" horiz-adv-x="1349" d="M160 0zM160 1493h183v-907q0 -240 78.5 -345.5t253.5 -105.5t253 105.5t78 345.5v907h183v-932q0 -292 -130 -441t-384 -149q-255 0 -385 149t-130 441v932zM621 -16h107q-40 -61 -59.5 -105t-19.5 -75q0 -46 24.5 -69t73.5 -23q29 0 57 7.5t55 22.5v-133 q-34 -10 -64.5 -15t-57.5 -5q-110 0 -161.5 43.5t-51.5 136.5q0 48 23.5 100.5t73.5 114.5z" />
<glyph unicode="&#x173;" horiz-adv-x="1168" d="M157 0zM157 442v678h165v-671q0 -159 56 -238.5t167 -79.5q135 0 212.5 95t77.5 259v635h166v-1120h-166v172q-60 -102 -139.5 -151.5t-185.5 -49.5q-173 0 -263 120t-90 351zM573 1147zM892 0h107q-40 -61 -59.5 -105t-19.5 -75q0 -46 24.5 -69t73.5 -23q29 0 57 7.5 t55 22.5v-133q-34 -10 -64.5 -15t-57.5 -5q-110 0 -161.5 43.5t-51.5 136.5q0 48 23.5 100.5t73.5 114.5z" />
<glyph unicode="&#x174;" horiz-adv-x="1822" d="M61 0zM827 1908h169l190 -266h-125l-150 178l-149 -178h-125zM61 1493h184l282 -1262l282 1262h204l283 -1262l282 1262h184l-337 -1493h-229l-283 1296l-287 -1296h-228z" />
<glyph unicode="&#x175;" horiz-adv-x="1507" d="M77 0zM686 1645h133l221 -376h-125l-162 245l-162 -245h-125zM77 1120h166l207 -874l206 874h195l207 -874l206 874h166l-264 -1120h-195l-217 918l-218 -918h-195z" />
<glyph unicode="&#x176;" horiz-adv-x="1125" d="M0 0zM479 1908h169l190 -266h-125l-150 178l-149 -178h-125zM-4 1493h196l372 -614l370 614h196l-476 -782v-711h-182v711z" />
<glyph unicode="&#x177;" horiz-adv-x="1090" d="M55 0zM479 1645h133l221 -376h-125l-162 245l-162 -245h-125zM593 -104q-70 -200 -136.5 -261t-178.5 -61h-132v154h97q68 0 106 36t84 170l30 84l-408 1102h175l315 -876l315 876h176z" />
<glyph unicode="&#x178;" horiz-adv-x="1125" d="M0 0zM-4 1493h196l372 -614l370 614h196l-476 -782v-711h-182v711zM649 1870h182v-203h-182v203zM297 1870h183v-203h-183v203z" />
<glyph unicode="&#x179;" horiz-adv-x="1262" d="M83 0zM645 1900h166l-205 -264h-138zM104 1493h1055v-154l-849 -1169h870v-170h-1097v154l849 1169h-828v170z" />
<glyph unicode="&#x17a;" horiz-adv-x="967" d="M79 0zM646 1645h179l-293 -376h-138zM102 1120h786v-168l-622 -805h622v-147h-809v168l623 805h-600v147z" />
<glyph unicode="&#x17b;" horiz-adv-x="1262" d="M83 0zM520 1870h184v-205h-184v205zM104 1493h1055v-154l-849 -1169h870v-170h-1097v154l849 1169h-828v170z" />
<glyph unicode="&#x17c;" horiz-adv-x="967" d="M79 0zM102 1120h786v-168l-622 -805h622v-147h-809v168l623 805h-600v147zM369 1552h184v-204h-184v204z" />
<glyph unicode="&#x17d;" horiz-adv-x="1262" d="M83 0zM104 1493h1055v-154l-849 -1169h870v-170h-1097v154l849 1169h-828v170zM548 1635l-190 266h125l149 -178l150 178h125l-190 -266h-169z" />
<glyph unicode="&#x17e;" horiz-adv-x="967" d="M79 0zM102 1120h786v-168l-622 -805h622v-147h-809v168l623 805h-600v147zM418 1262l-220 376h125l162 -245l162 245h125l-221 -376h-133z" />
<glyph unicode="&#x17f;" horiz-adv-x="648" d="M367 0h-166v977h-159v143h159v78q0 187 78 272.5t248 85.5h157v-153h-158q-90 0 -124 -40q-35 -41 -35 -144v-1219z" />
<glyph unicode="&#x180;" horiz-adv-x="1170" d="M897 559q0 203 -75 319q-75 115 -206 115q-132 0 -207 -115q-75 -116 -75 -319t75 -319q75 -115 207 -115q131 0 206 115q75 116 75 319zM334 950q52 100 132 148q79 49 190 49q184 0 298 -162q115 -162 115 -426t-115 -426q-114 -162 -298 -162q-111 0 -190 49 q-80 48 -132 148v-168h-167v1284h-138v125h138v147h167v-147h292v-125h-292v-334z" />
<glyph unicode="&#x181;" horiz-adv-x="1354" d="M453 713v-547h291q147 0 217.5 67.5t70.5 206.5q0 140 -70.5 206.5t-217.5 66.5h-291zM453 1327v-450h269q133 0 198.5 55.5t65.5 169.5q0 113 -65.5 169t-198.5 56h-269zM271 1493h464q208 0 320.5 -96t112.5 -273q0 -137 -57.5 -218t-169.5 -101q135 -32 209 -133.5 t74 -253.5q0 -200 -122.5 -309t-348.5 -109h-482v1328q-119 0 -172 -47.5t-53 -152.5v-49h-140v70q0 181 86 262.5t279 81.5z" />
<glyph unicode="&#x182;" horiz-adv-x="1264" d="M181 0zM942 439q0 139 -70.5 206.5t-217.5 67.5h-291v-547h291q147 0 217.5 67.5t70.5 205.5zM1040 1493v-166h-677v-448h300q226 0 348.5 -109t122.5 -331q0 -221 -118.5 -330t-352.5 -109h-482v1493h859z" />
<glyph unicode="&#x183;" horiz-adv-x="1170" d="M334 950q52 100 132 148q79 49 190 49q184 0 298 -162q115 -162 115 -426t-115 -426q-114 -162 -298 -162q-111 0 -190 49q-80 48 -132 148v-168h-167v1556h762v-166l-595 1v-441zM897 559q0 203 -75 319q-75 115 -206 115q-132 0 -207 -115q-75 -116 -75 -319t75 -319 q75 -115 207 -115q131 0 206 115q75 116 75 319z" />
<glyph unicode="&#x184;" horiz-adv-x="1264" d="M942 439q0 139 -71 207q-70 67 -217 67h-291v-547h291q147 0 217 68q71 67 71 205zM363 1493v-614h300q226 0 348.5 -109t122.5 -331q0 -221 -122.5 -330t-348.5 -109h-482v1092h-181l281 401h82z" />
<glyph unicode="&#x185;" horiz-adv-x="1170" d="M334 950q52 100 131.5 148.5t190.5 48.5q184 0 298.5 -162t114.5 -426t-114.5 -426t-298.5 -162q-111 0 -190.5 48.5t-131.5 148.5v-168h-167v1092h-167l261 465h73v-607zM897 559q0 203 -75 318.5t-206 115.5q-132 0 -207 -115.5t-75 -318.5t75 -318.5t207 -115.5 q131 0 206 115.5t75 318.5z" />
<glyph unicode="&#x186;" horiz-adv-x="1296" d="M104 1378q93 71 199.5 106.5t227.5 35.5q305 0 480.5 -207.5t175.5 -567.5q0 -359 -175.5 -566.5t-480.5 -207.5q-119 0 -225.5 36t-201.5 108v211q91 -95 195 -142t221 -47q231 0 353 156.5t122 451.5q0 296 -122 452.5t-353 156.5q-117 0 -221 -47t-195 -142v213z" />
<glyph unicode="&#x187;" horiz-adv-x="1287" d="M1187 1378v-213q-92 95 -196 142t-221 47q-230 0 -352.5 -156.5t-122.5 -452.5q0 -295 122.5 -451.5t352.5 -156.5q117 0 221 47t196 142v-211q-95 -72 -202 -108t-225 -36q-306 0 -481 207.5t-175 566.5q0 360 175 567.5t481 207.5q86 0 226 -36q12 -3 23 -7 q14 195 89 293q92 122 296 122h69v-170h-56q-121 0 -170.5 -75t-49.5 -269z" />
<glyph unicode="&#x188;" horiz-adv-x="1013" d="M899 1150v-245q-70 43 -140.5 64.5t-142.5 21.5q-162 0 -251 -113.5t-89 -318.5t89 -318.5t251 -113.5q72 0 142.5 21.5t140.5 64.5v-170q-69 -36 -143.5 -54t-157.5 -18q-228 0 -362 159t-134 429q0 274 135.5 431t370.5 157q64 0 127 -12v15q0 214 72.5 310t235.5 96 h62v-156h-43q-94 0 -128.5 -48.5t-34.5 -201.5z" />
<glyph unicode="&#x189;" horiz-adv-x="1428" d="M9 0zM190 1493h374q390 0 572.5 -180.5t182.5 -564.5q0 -386 -183 -567t-572 -181h-374v700h-181v144h181v649zM373 1327v-483h302v-144h-302v-534h218q278 0 407.5 140t129.5 442q0 300 -129.5 439.5t-407.5 139.5h-218z" />
<glyph unicode="&#x18a;" horiz-adv-x="1509" d="M453 1327v-1161h219q278 0 407.5 140t129.5 442q0 300 -129.5 439.5t-407.5 139.5h-219zM271 1493h373q391 0 573.5 -180.5t182.5 -564.5q0 -386 -183.5 -567t-572.5 -181h-373v1328q-119 0 -172 -47.5t-53 -152.5v-49h-140v70q0 181 86 262.5t279 81.5z" />
<glyph unicode="&#x18b;" horiz-adv-x="1264" d="M373 439q0 -273 288 -273h291v547h-291q-147 0 -217.5 -67.5t-70.5 -206.5zM373 1493h761v-1493h-482q-226 0 -348.5 109t-122.5 331q0 221 122.5 330t348.5 109h300v448h-579v166z" />
<glyph unicode="&#x18c;" horiz-adv-x="1170" d="M242 1390v166h761v-1556h-166v168q-52 -100 -131.5 -148.5t-191.5 -48.5q-183 0 -297.5 162t-114.5 426t114.5 426t297.5 162q112 0 191.5 -48.5t131.5 -148.5v441zM273 559q0 -203 75 -318.5t206 -115.5q132 0 207.5 115.5t75.5 318.5t-75.5 318.5t-207.5 115.5 q-131 0 -206 -115.5t-75 -318.5z" />
<glyph unicode="&#x18d;" horiz-adv-x="1127" d="M788 66q141 -79 141 -220q0 -272 -397 -272q-199 0 -307 70v153q92 -70 313 -70q222 0 222 117q0 92 -238 140q-187 37 -292 149q-128 135 -128 406t123 427.5t339 156.5q215 0 339 -156.5t123 -431.5q0 -156 -70 -286t-168 -183zM851 535q1 203 -76 317.5t-210 114.5 t-210.5 -116t-77.5 -311q0 -194 84.5 -293.5t198.5 -110.5q57 -6 103 -20q89 42 138.5 152t49.5 267z" />
<glyph unicode="&#x18e;" horiz-adv-x="1164" d="M984 1493v-1493h-866v170h684v541h-640v170h640v442h-668v170h850z" />
<glyph unicode="&#x18f;" horiz-adv-x="1450" d="M105 780h1051q0 268 -124 421t-370 153q-126 0 -239 -48t-214 -143v215q100 70 218 106t250 36q315 0 492.5 -204.5t177.5 -570.5q0 -353 -169 -563.5t-452 -210.5q-296 0 -458.5 219.5t-162.5 589.5zM303 614q12 -195 126.5 -337t296.5 -142t297 142t126 337h-846z" />
<glyph unicode="&#x190;" horiz-adv-x="1132" d="M425 805q-118 33 -182 118.5t-64 209.5q0 178 120.5 282.5t327.5 104.5q80 0 170.5 -16t194.5 -48v-180q-103 38 -188.5 56t-159.5 18q-137 0 -210.5 -61.5t-73.5 -176.5q0 -112 71 -171.5t205 -59.5h164v-166h-156q-149 0 -232.5 -74.5t-83.5 -206.5q0 -143 90 -218 t261 -75q98 0 188 25t165 74v-195q-95 -37 -184.5 -55.5t-174.5 -18.5q-252 0 -388.5 121t-136.5 342q0 144 73 242t204 129z" />
<glyph unicode="&#x191;" horiz-adv-x="1060" d="M181 1493h772v-170h-590v-440h533v-170h-533v-609q0 -270 -92.5 -392t-296.5 -122h-69v170h56q121 0 170.5 75t49.5 269v1389z" />
<glyph unicode="&#x192;" horiz-adv-x="648" d="M684 1556v-153h-158q-90 0 -124.5 -40t-34.5 -144v-99h273v-143h-273v-1045q0 -187 -78 -272.5t-249 -85.5h-156v153h158q89 0 124 40t35 144v1066h-159v143h159v78q0 187 78 272.5t248 85.5h157z" />
<glyph unicode="&#x193;" horiz-adv-x="1428" d="M1097 213v401h-297v166h477v-641q-105 -83 -232 -125.5t-271 -42.5q-315 0 -492.5 204.5t-177.5 569.5q0 366 177.5 570.5t492.5 204.5q81 0 154.5 -12.5t135.5 -37.5q0 188 90.5 305t294.5 117h69v-170h-56q-121 0 -170.5 -75t-49.5 -269v-215q-101 95 -214.5 143 t-238.5 48q-246 0 -370 -153t-124 -456q0 -302 124 -455t370 -153q97 0 172.5 18.5t135.5 57.5z" />
<glyph unicode="&#x194;" horiz-adv-x="1265" d="M633 -259q49 0 88 32q25 20 25 86q0 57 -28 130q-46 121 -85 213q-40 -92 -86 -213q-28 -73 -28 -130q0 -66 25 -86q40 -32 89 -32zM633 631l425 862h200l-523 -1073q93 -200 153 -374q42 -119 42 -185q0 -139 -68 -204q-90 -87 -229 -87t-230 87q-67 65 -67 204 q0 66 41 185q61 174 154 374l-524 1073h200z" />
<glyph unicode="&#x195;" horiz-adv-x="1813" d="M1220 156q134 0 210 98q78 101 78 256q0 222 -66 334q-56 95 -165 128v148q202 -29 300 -172q100 -145 100 -421q0 -245 -129.5 -386t-328.5 -141h-63q-169 0 -239.5 100t-70.5 306v264q0 159 -56 238t-167 79q-134 0 -211.5 -95t-77.5 -259v-633h-167v1556h167v-610 q59 101 139.5 151t186.5 50q173 0 262.5 -119.5t89.5 -351.5v-270q0 -147 34 -198.5t128 -51.5h46z" />
<glyph unicode="&#x196;" horiz-adv-x="651" d="M181 1493h182v-979q0 -194 49.5 -269t169.5 -75h57v-170h-69q-205 0 -297 122t-92 392v979z" />
<glyph unicode="&#x197;" horiz-adv-x="543" d="M181 1493h182v-746h172v-170h-172v-577h-182v577h-172v170h172v746z" />
<glyph unicode="&#x198;" horiz-adv-x="1374" d="M1374 1096h-153v121q0 54 -32.5 94t-67.5 40q-63 0 -96 -35l-492 -519l714 -797h-239l-645 719v-719h-182v1493h182v-631l558 579q76 79 178 79q122 0 199 -92q76 -91 76 -201v-131z" />
<glyph unicode="&#x199;" horiz-adv-x="1067" d="M166 1150q0 214 73.5 310t236.5 96h172v-156h-151q-95 0 -129 -48.5t-34 -201.5v-513l494 483h212l-535 -524l557 -596h-216l-512 547v-547h-167z" />
<glyph unicode="&#x19a;" horiz-adv-x="512" d="M174 1556h165v-712h160v-144h-160v-700h-165v700h-165v144h165v712z" />
<glyph unicode="&#x19b;" horiz-adv-x="1090" d="M55 0l442 1074l-64 188l-270 -101l-30 99l267 99l-67 197h180l47 -138l282 104l30 -97l-280 -104l444 -1321h-176l-282 828l-348 -828h-175z" />
<glyph unicode="&#x19c;" horiz-adv-x="1795" d="M841 213q-63 -124 -149 -183t-203 -59q-158 0 -243 123q-86 122 -86 348v1051h183v-1041q0 -186 35 -239q51 -78 157 -78q128 0 203 95t75 259v1004h182v-1041q0 -162 52 -240q51 -77 158 -77q111 0 185 95q75 96 75 259v1004h183v-1495h-183v174q-57 -103 -136 -152 t-188 -49q-110 0 -187 62q-76 62 -113 180z" />
<glyph unicode="&#x19d;" horiz-adv-x="1378" d="M181 1493h245l596 -1249v1249h176v-1493h-245l-596 1249v-1145q0 -270 -92 -392t-296 -122h-64v170h56q121 0 170.5 75t49.5 269v1389z" />
<glyph unicode="&#x19e;" horiz-adv-x="1168" d="M167 0zM1012 676v-1102h-166v1096q0 159 -56 238t-167 79q-134 0 -211.5 -95t-77.5 -259v-633h-167v1120h167v-174q59 101 140 151q80 50 186 50q173 0 262 -119q90 -120 90 -352z" />
<glyph unicode="&#x19f;" horiz-adv-x="1450" d="M104 745q0 354 169.5 564.5t452.5 210.5t452 -210.5t169 -563.5q0 -354 -169 -564.5t-452 -210.5t-452.5 210t-169.5 564zM727 1356q-182 0 -297 -142t-126 -337h846q-12 195 -126.5 337t-296.5 142zM295 710q7 -257 120 -416t311 -159t310 158.5t119 416.5h-860z" />
<glyph unicode="&#x1a0;" horiz-adv-x="1683" d="M93 0zM715 1356q-198 0 -314.5 -164t-116.5 -447q0 -282 116.5 -446t314.5 -164t314 164t116 446q0 283 -116 447t-314 164zM715 1520q283 0 452 -210.5t169 -564.5q0 -353 -169 -563.5t-452 -210.5t-452.5 210t-169.5 564t169.5 564.5t452.5 210.5zM1052 1291v119 q55 -45 94.5 -66.5t67.5 -21.5q42 0 62.5 27.5t20.5 81.5q0 32 -7 63t-20 62h120q9 -38 13.5 -72t4.5 -64q0 -122 -39.5 -179.5t-122.5 -57.5q-43 0 -90.5 26.5t-103.5 81.5z" />
<glyph unicode="&#x1a1;" horiz-adv-x="1127" d="M106 0zM756 994v119q55 -45 94.5 -66.5t67.5 -21.5q42 0 62.5 27.5t20.5 81.5q0 32 -7 63t-20 62h120q9 -38 13.5 -72t4.5 -64q0 -122 -39.5 -179.5t-122.5 -57.5q-43 0 -90.5 26.5t-103.5 81.5zM568 991q-133 0 -210.5 -115.5t-77.5 -316.5t77 -316.5t211 -115.5 q133 0 210 116t77 316q0 199 -77 315.5t-210 116.5zM568 1147q216 0 339.5 -156t123.5 -432q0 -275 -123.5 -431.5t-339.5 -156.5q-217 0 -339.5 156.5t-122.5 431.5q0 276 122.5 432t339.5 156z" />
<glyph unicode="&#x1a2;" horiz-adv-x="1748" d="M1387 0v979q0 194 -49.5 269t-159.5 75v-1141q-169 -211 -453 -211q-282 0 -451.5 210t-169.5 564t169.5 564.5t452.5 210.5q101 0 188 -27h266q204 0 296.5 -122t92.5 -392v-979h-182zM726 1356q-198 0 -314.5 -164t-116.5 -446q0 -283 116.5 -447t314.5 -164 q158 0 273 103v1048q-124 70 -273 70z" />
<glyph unicode="&#x1a3;" horiz-adv-x="1399" d="M1066 -426v1140q0 153 -34 202q-34 48 -128 48v-836q-124 -157 -340 -157q-217 0 -339.5 156.5t-122.5 431.5q0 276 122.5 432t339.5 156q90 0 164 -27h194q163 0 237 -96q73 -96 73 -310v-1140h-166zM564 991q-133 0 -210.5 -115.5t-77.5 -316.5t77 -316.5t211 -115.5 q116 0 174 58v752q-76 54 -174 54z" />
</font>
</defs>
</svg>
